Welcome Guest ( Log In | Register )

> Embalming Theatre & Insomnia Isterica - Conservation/Tramontata Luce [split] (2011), Goregrind | Grindcore
post Mar 7 2013, 07:28:08
Post #1

Serial Uploader
Group Icon
Group: V.I.P
Posts: 38,499
Releases: 36646
From: Lithuania
On Forums: 13 years 11 months
Thanks: 453705 time(s)
Lithuania


(IMG:http://metalarea.org/images/audiocovers/2013_Mar/acov_tid195649_thumb.jpg)

*Artist: Embalming Theatre & Insomnia Isterica
*Album: Conservation/Tramontata Luce [split]
*Year: 2011
*Genre: Goregrind | Grindcore
*Country: Switzerland (IMG:http://metalarea.org/forum/style_images/flags/Switzerland.png) | Switzerland (IMG:http://metalarea.org/forum/style_images/flags/Switzerland.png)
*Format: mp3@CBR320kbps
*Size: 50MB

Tracklist:
Embalming Theatre:
01. Mouth-Raped By Motorcycle Gang 01:54
02. My Wife In Concrete Pt.1 00:55
03. Jamaicabre Rum 02:43
Insomnia Isterica:
04. Tramontata Luce 00:52
05. Spirito Di Rivalsa 01:20
06. Glorificazione Della Violenza 01:34
07. In Ascolto Del Silencio 01:28
08. Fastidio Sonoro 00:40
******************************
Total playing time: 11:26

(IMG:http://metalarea.org/images/myspace.png)
(IMG:http://metalarea.org/images/myspace.png)

Extended info


(IMG:http://metalarea.org/images/spectrogram/2013_Mar/67bef438bcc7374cfff52c0325447225.png)
Input File: 05 insomnia isterica - spirito di rivalsa.mp3
Channels : 2
Sample Rate : 44100
Precision : 16-bit
Duration : 00:02:29.50 = 6592818 samples = 11212.3 CDDA sectors
File Size : 5.98M
Bit Rate : 320k
Sample Encoding: MPEG audio (layer I, II or III)
Comments :
Title=insomnia isterica - spirito d
Artist=insomnia isterica
Album=embalming theatre / insomnia
Tracknumber=5
Genre=148



Register


Go to the top of the page
  Insert nick Quick quote
+Quote Post
 
Start new topic
Replies (1 - 1)
post Mar 27 2015, 16:12:47
Post #2

Split Backup Copy
**************
Group: Металариец
Posts: 5,406
Releases: 243
From: с. Мизоново, Ишимский Район, Тюменская область
On Forums: 14 years 5 months
Thanks: 3872 time(s)
Russian Federation


Register


Go to the top of the page
  Insert nick Quick quote
+Quote Post

Reply to this topicStart new topic
1 User(s) are reading this topic (1 Guests and 0 Anonymous Users)
0 Members:

 



- Lo-Fi Version Support form
Copyrights and abuse reports form
Time is now: 29th May 2022 - 06:51:39