Welcome Guest ( Log In | Register )

> The Amenta - Flesh Is Heir (2013), Industrial Death Metal
post Mar 19 2013, 19:27:48
Post #1

Serial Uploader
Group Icon
Group: V.I.P
Posts: 33,126
Releases: 31411
From: Lithuania
On Forums: 10 years 4 months
Thanks: 359210 time(s)
Lithuania


(IMG:http://metalarea.org/images/audiocovers/2013_Mar/acov_tid196609_thumb.jpg)

*Artist: The Amenta
*Album: Flesh Is Heir
*Year: 2013
*Genre: Industrial Death Metal
*Country: Australia (IMG:http://metalarea.org/forum/style_images/flags/Australia.png)
*Format: mp3@CBR320kbps
*Size: 104MB

Tracklist:
01. Flesh Is Heir 05:05
02. Ego Ergo Sum 04:47
03. Teeth 03:57
04. A Womb Tone 02:47
05. Obliterate's Prayer 05:45
06. Sewer 03:46
07. The Argument 04:09
08. Cell 04:47
09. Disintergrate 03:04
10. A Palimpsest 02:34
11. Tabula Rasa 04:54
******************************
Total playing time: 45:35

(IMG:http://metalarea.org/images/myspace.png)

Extended info


(IMG:http://metalarea.org/images/spectrogram/2013_Mar/92db1756a300af19b7b5f28a3e930841.png)
Input File: 02. Ego Ergo Sum.mp3
Channels : 2
Sample Rate : 44100
Precision : 16-bit
Duration : 00:04:47.48 = 12677912 samples = 21561.1 CDDA sectors
File Size : 11.5M
Bit Rate : 320k
Sample Encoding: MPEG audio (layer I, II or III)
Comments :
Title=Ego Ergo Sum
Artist=The Amenta
Album=Flesh is Heir
Tracknumber=2/11
Year=2013
Genre=Metal
Discnumber=1/1



Register


Go to the top of the page
  Insert nick Quick quote
+Quote Post
 
Start new topic
Replies (1 - 5)
post Jan 31 2016, 16:00:18
Post #2

Маньяк
**********
Group: Металариец
Posts: 1,254
Releases: 18
From: Lake-City
On Forums: 9 years 4 months
Thanks: 2244 time(s)
Russian Federation


Register


Thanks:
Go to the top of the page
  Insert nick Quick quote
+Quote Post
post Mar 4 2018, 07:19:38
Post #3

Quaerite Lux in Tenebris
**********
Group: Металариец
Posts: 1,482
Releases: 18
From: Micsődőllő
On Forums: 8 years 3 months
Thanks: 2507 time(s)
Unknown


320 k (109.7 Mb):
Register


Thanks:
Go to the top of the page
  Insert nick Quick quote
+Quote Post
post Mar 5 2018, 06:36:58
Post #4

Group: Подсевший
Posts: 14
Releases: 0
On Forums: 10 months 14 hours
Thanks: 3 time(s)
United States


FLAC?
Go to the top of the page
  Insert nick Quick quote
+Quote Post
post Mar 5 2018, 06:48:18
Post #5

Group: Подсевший
Posts: 14
Releases: 0
On Forums: 10 months 14 hours
Thanks: 3 time(s)
United States


Flac: 337.77 MB
https://rapidgator.net/file/282b92014b442e5...)_FLAC.rar.html


Thanks:
(1) SyncestrA,
Go to the top of the page
  Insert nick Quick quote
+Quote Post
post Jul 12 2018, 09:45:11
Post #6

hearer & reader
**************
Group: Металариец
Posts: 6,967
Releases: 89
From: Moscow
On Forums: 11 years 1 month
Thanks: 6688 time(s)
Russian Federation


Go to the top of the page
  Insert nick Quick quote
+Quote Post

Reply to this topicStart new topic
2 User(s) are reading this topic (2 Guests and 0 Anonymous Users)
0 Members:

 



- Lo-Fi Version Support form
Copyrights and abuse reports form
Time is now: 17th October 2018 - 21:07:42