Welcome Guest ( Log In | Register )

 
Reply to this topicStart new topic
> Vulvaspermdozer - Infected Pussy [ep] (2011), Porno Goregrind
post Mar 27 2013, 00:44:10
Post #1

Serial Uploader
Group Icon
Group: V.I.P
Posts: 37,287
Releases: 35468
From: Lithuania
On Forums: 12 years 1 month
Thanks: 422559 time(s)
Lithuania


(IMG:http://metalarea.org/images/audiocovers/2013_Mar/acov_tid197147_thumb.jpg)

*Artist: Vulvaspermdozer
*Album: Infected Pussy [ep]
*Year: 2011
*Genre: Porno Goregrind
*Country: Belarus (IMG:http://metalarea.org/forum/style_images/flags/Belarus.png)
*Format: mp3@CBR320kbps
*Size: 36MB

Tracklist:
01. Intro 00:48
02. Infected Pussy 01:16
03. Bear Mutant In The Horse Cunt 01:52
04. Monster's Nipple 01:28
05. Bulldozer Copro Vulcanic Oscillator 02:45
06. Deep Tentacle Penetration 01:14
07. Kuraga Hunter 01:26
08. Unimpregnated Fecals Searching For Woman Genitals 02:38
09. Throat Punished By Cunnilingus 01:14
10. Dildo Helicopter 00:38
******************************
Total playing time: 15:19

Extended info


(IMG:http://metalarea.org/images/spectrogram/2013_Mar/6d8620e3225fb1702a0df8ef8b6e972d.png)
Input File: 03 Bear Mutant in The Horse Cunt.mp3
Channels : 2
Sample Rate : 48000
Precision : 16-bit
Duration : 00:01:52.64 = 5406480 samples ~ 8447.62 CDDA sectors
File Size : 5.01M
Bit Rate : 356k
Sample Encoding: MPEG audio (layer I, II or III)
Comments :
Title=Bear Mutant in The Horse Cunt
Artist=Vulvaspermdozer
Album=Infected Pussy
Tracknumber=03
Year=2011
Genre=LowGroovyPornoGoreGrind



Register


Thanks:
Go to the top of the page
  Insert nick Quick quote
+Quote Post

Reply to this topicStart new topic
1 User(s) are reading this topic (1 Guests and 0 Anonymous Users)
0 Members:

 



- Lo-Fi Version Support form
Copyrights and abuse reports form
Time is now: 7th August 2020 - 05:09:39