Welcome Guest ( Log In | Register )

> Agonize - Promo Demo 1993 [demo] (1993), Death/Thrash Metal (D6)
post Apr 8 2013, 11:47:22
Post #1

Правь статус, ####!111
**************
Group: Металариец
Posts: 6,549
Releases: 6028
From: Lithuania
On Forums: 14 years 6 months
Thanks: 46011 time(s)
Lithuania


(IMG:http://metalarea.org/images/audiocovers/2013_Apr/acov_tid198175_thumb.jpg)

*Artist: Agonize
*Album: Promo Demo 1993 [demo]
*Year: 1993
*Genre: Death/Thrash Metal
*Country: Denmark (IMG:http://metalarea.org/forum/style_images/flags/Denmark.png)
*Format: mp3@CBR320kbps
*Size: 22MB

Tracklist:
1. Grey 02:19
2. Shrines to Sentiment 03:58
3. Days in Cliche 03:23
******************************
Total playing time: 9:40

Extended info


(IMG:http://metalarea.org/images/spectrogram/2013_Apr/1f605a1876bc6ec5ee0f8c0b88c52933.png)
Input File: 02 Shrines to Sentiment.mp3
Channels : 2
Sample Rate : 44100
Precision : 16-bit
Duration : 00:03:58.27 = 10507487 samples = 17869.9 CDDA sectors
File Size : 9.53M
Bit Rate : 320k
Sample Encoding: MPEG audio (layer I, II or III)
Comments :
Artist=Agonize
Album=Promo Demo 1993
Year=1993
Genre=9



Register


Go to the top of the page
  Insert nick Quick quote
+Quote Post
 
Start new topic
Replies (1 - 3)
post Jan 30 2019, 13:18:34
Post #2

Подвал
**************
Group: Металариец
Posts: 15,940
Releases: 9109
From: Far East (Khabarovsk)
On Forums: 12 years 2 months
Thanks: 102232 time(s)
Russian Federation


new link:
Register


Go to the top of the page
  Insert nick Quick quote
+Quote Post
post Feb 19 2021, 15:47:03
Post #3

Forever Underground
**************
Group: Металариец
Posts: 8,143
Releases: 0
On Forums: 6 years 2 weeks
Thanks: 11112 time(s)
Unknown


Please, re-up this demo or at least the CD Re-release edition 2018 (which compiles both Agonize's demo tapes):
https://www.discogs.com/Agonize-Fall-Demo-1...elease/12384658
Thanks in advance! (IMG:style_emoticons/default/metaler.gif) (IMG:style_emoticons/default/9.gif)
Go to the top of the page
  Insert nick Quick quote
+Quote Post
post Feb 22 2021, 16:46:10
Post #4

Group Icon
Group: S-moderation team
Posts: 20,347
Releases: 1441
From: Zagreb
On Forums: 10 years 1 month
Thanks: 93344 time(s)
Croatia


Register


Go to the top of the page
  Insert nick Quick quote
+Quote Post

Reply to this topicStart new topic
1 User(s) are reading this topic (1 Guests and 0 Anonymous Users)
0 Members:

 



- Lo-Fi Version Support form
Copyrights and abuse reports form
Time is now: 21st April 2021 - 15:48:17