Welcome Guest ( Log In | Register )

> Pulmonary Fibrosis & Lactovaginal & Insomnia Isterica & Biotox & Sposa In Alto Mare & Genital Orgasm - Supergrinding 6 Way Split [split] (2012), Goregrind
post Apr 15 2013, 21:36:59
Post #1

Serial Uploader
Group Icon
Group: V.I.P
Posts: 37,920
Releases: 36064
From: Lithuania
On Forums: 13 years 5 months
Thanks: 440046 time(s)
Lithuania


(IMG:http://metalarea.org/images/audiocovers/2013_Apr/acov_tid198802_thumb.jpg)

*Artist: Pulmonary Fibrosis & Lactovaginal & Insomnia Isterica & Biotox & Sposa In Alto Mare & Genital Orgasm
*Album: Supergrinding 6 Way Split [split]
*Year: 2012
*Genre: Goregrind | Grindcore | Grindcore | Grindcore | Grindcore/Crust | Brutal Death Metal/Goregrind
*Country: France (IMG:http://metalarea.org/forum/style_images/flags/France.png) | Poland (IMG:http://metalarea.org/forum/style_images/flags/Poland.png) | Switzerland (IMG:http://metalarea.org/forum/style_images/flags/Switzerland.png) | France (IMG:http://metalarea.org/forum/style_images/flags/France.png) | Italy (IMG:http://metalarea.org/forum/style_images/flags/Italy.png) | Italy (IMG:http://metalarea.org/forum/style_images/flags/Italy.png)
*Format: mp3@CBR320kbps
*Size: 157MB

Tracklist:
Pulmonary Fibrosis:
01. Emanates From Your Eroded Skin 02:30
02. Rancid Coprophagous Blists 01:09
03. Entombed Relics Of Malicious Art 01:22
04. Pyogenic Eroded Slaughtering 01:41
05. Emaciated Intraspinal Carnivorous Encyst 02:40
Lactovaginal:
06. Jihad 01:46
07. Irak 01:48
08. Fobia 01:54
09. Anarchia 00:32
10. A For Arrogance (Agathocles Cover) 01:58
11. Serdel II 02:12
12. Ecology Grossmember 01:42
13. Endless Pain Of Human Creation 01:40
14. Seas Of Blood (Nunslaughter Cover) 01:10
Insomnia Isterica:
15. Disillussione 01:28
16. Deformation 01:24
17. Spirito Di Rivalsa 01:27
18. Groovy 01:38
19. Lower Class 01:08
20. Fastidio Sonoro 00:35
21. In Ascolto Del Silenzio 01:27
22. Until It Bleeds (Agathocles Cover) 01:03
23. Pile Di Umani Cadaveri 01:24
24. Il Grande Silenzio 01:43
25. Ce L'Hai Il Vibro 01:40
Biotox:
26. Neuviemme 00:50
27. Obey & Conform 01:04
28. Tac Tac - Chaine 01:13
29. Tournez Manège 01:43
30. I Need A Drink 04:27
Sposa In Alto Mare:
31. Incro 00:15
32. Bicicletta 01:17
33. Aeiaculatio Preacox 00:14
34. Aeiaculatio Preacox Preacox 00:09
35. Absurdum Aeiaculatio Preacox 00:06
36. Immagine Onirica 01:06
37. La Mutandaia 01:05
38. La Diuresi Di Jenny 02:28
39. Sono Pulito 00:24
40. Nucleare (Rimini Version) 00:28
41. Beppe Bigazzi (DJ Nekrovalium Remix) 02:29
Genital Orgasm:
42. Duplication Of Fetuses Decomposed 02:42
43. Gangrene From The Scrotum To Throat 02:28
44. Genital Castration (Cannibal Pleasure Cover) 02:50
45. Wonderful Anal Bleach 03:04
46. Rottenness And Decease 01:05
******************************
Total playing time: 1:10:28

(IMG:http://metalarea.org/images/myspace.png)
(IMG:http://metalarea.org/images/myspace.png)
(IMG:http://metalarea.org/images/myspace.png)
(IMG:http://metalarea.org/images/myspace.png)
(IMG:http://metalarea.org/images/myspace.png)

Technical info
(IMG:http://metalarea.org/images/spectrogram/2013_Apr/08b80b338a5f8189a31a3ea0794c5d8e.png)
Input File: 37. La Mutandaia.mp3
Channels : 2
Sample Rate : 44100
Precision : 16-bit
Duration : 00:01:05.73 = 2898825 samples = 4929.97 CDDA sectors
File Size : 2.63M
Bit Rate : 320k
Sample Encoding: MPEG audio (layer I, II or III)
Comments :
Title=La Mutandaia
Artist=Sposa In Alto Mare
Album=Supergrinding 6 Way Split
Tracknumber=37
Year=2012
Genre=Grindcore



Register


Go to the top of the page
  Insert nick Quick quote
+Quote Post
 
Start new topic
Replies (1 - 1)
post Mar 27 2015, 16:14:23
Post #2

Split Backup Copy
**************
Group: Металариец
Posts: 5,383
Releases: 243
From: с. Мизоново, Ишимский Район, Тюменская область
On Forums: 13 years 11 months
Thanks: 3815 time(s)
Russian Federation


Архив автора темы:
Register


Go to the top of the page
  Insert nick Quick quote
+Quote Post

Reply to this topicStart new topic
1 User(s) are reading this topic (1 Guests and 0 Anonymous Users)
0 Members:

 



- Lo-Fi Version Support form
Copyrights and abuse reports form
Time is now: 3rd December 2021 - 04:43:29