Welcome Guest ( Log In | Register )

> Carved - Dies Irae (2013), Melodic Death Metal
post Apr 19 2013, 17:41:29
Post #1

Serial Uploader
Group Icon
Group: V.I.P
Posts: 34,367
Releases: 32594
From: Lithuania
On Forums: 10 years 9 months
Thanks: 371835 time(s)
Lithuania


(IMG:http://metalarea.org/images/audiocovers/2013_Apr/acov_tid199102_thumb.jpg)

*Artist: Carved
*Album: Dies Irae
*Year: 2013
*Genre: Melodic Death Metal
*Country: Italy (IMG:http://metalarea.org/forum/style_images/flags/Italy.png)
*Format: mp3@CBR320kbps
*Size: 102MB

Tracklist:
01. Dies Irae (Praeludium) 03:22
02. Echo Of My Cinderella (The Final Symphony) 04:54
03. Enter The Silence 05:27
04. Scripta Manent (Bullshit) 03:06
05. The Perfect Storm 04:57
06. At The Gates Of Ice 03:59
07. Ashes Of A Scar 03:43
08. Black Lily Of Chaos 05:30
09. A New World (Postludium) 01:03
******************************
Total playing time: 36:01

(IMG:http://metalarea.org/images/myspace.png)

Technical info
(IMG:http://metalarea.org/images/spectrogram/2013_Apr/8511c62553e33a38c2dd5fc55909a840.png)
Input File: 04. Scripta Manent (Bullshit).mp3
Channels : 2
Sample Rate : 44100
Precision : 16-bit
Duration : 00:03:06.82 = 8238850 samples = 14011.6 CDDA sectors
File Size : 8.86M
Bit Rate : 380k
Sample Encoding: MPEG audio (layer I, II or III)
Comments :
Title=Scripta Manent (Bullshit)
Artist=Carved
Album=Dies Irae
Tracknumber=4/9
Year=2013



Register


Go to the top of the page
  Insert nick Quick quote
+Quote Post
 
Start new topic
Replies (1 - 3)
post Apr 20 2013, 07:08:32
Post #2

Мегаманьяк
***********
Group: Металариец
Posts: 1,778
Releases: 238
On Forums: 9 years 2 months
Thanks: 2725 time(s)
Russian Federation


Register


Thanks:
(1) MCMLXXXIX,
Go to the top of the page
  Insert nick Quick quote
+Quote Post
post Nov 13 2014, 03:24:15
Post #3

Group: Дух
Posts: 5
Releases: 0
On Forums: 9 years 4 months
Thanks: 0 time(s)
Mexico


QUOTE(Elfrey @ Apr 20 2013, 09:08:32) *

Gracias! Saludos de México! (IMG:style_emoticons/default/smile1.gif)
Go to the top of the page
  Insert nick Quick quote
+Quote Post
post Mar 15 2019, 12:56:46
Post #4

Маньяк
**********
Group: Металариец
Posts: 1,117
Releases: 0
On Forums: 8 months 2 weeks
Thanks: 589 time(s)
Russian Federation


83 mb/320 kbps
Register
Go to the top of the page
  Insert nick Quick quote
+Quote Post

Reply to this topicStart new topic
2 User(s) are reading this topic (2 Guests and 0 Anonymous Users)
0 Members:

 



- Lo-Fi Version Support form
Copyrights and abuse reports form
Time is now: 23rd March 2019 - 04:10:31