Welcome Guest ( Log In | Register )

> The Final Demise - Power Of Suggestion (1992), Thrash Metal/Crossover
post Apr 20 2013, 04:30:04
Post #1

Подвал
**************
Group: Металариец
Posts: 13,268
Releases: 7488
From: Far East (Khabarovsk)
On Forums: 10 years 2 months
Thanks: 71199 time(s)
Russian Federation


(IMG:http://metalarea.org/images/audiocovers/2013_Apr/acov_tid199134_thumb.jpg)

*Artist: The Final Demise
*Album: Power Of Suggestion
*Year: 1992
*Genre: Thrash Metal/Crossover
*Country: United States (IMG:http://metalarea.org/forum/style_images/flags/United%20States.png)
*Format: mp3@CBR320kbps
*Size: 74MB

Tracklist:
1. Drop Dead 01:59
2. Scrap With You 03:10
3. Be Gentle 03:48
4. One More Step Into Chaos 04:33
5. I Did Not Know 03:00
6. Will It End! 01:50
7. Moral Payback 02:20
8. Yearning For Afterlife 04:17
9. Green Socks 01:47
10. World's Anti-Hero 02:35
11. Sardines, Pretzels & Beer 01:46
12. Electric Chicken (Bonus Track) 01:45
******************************
Total playing time: 32:50

Technical info
(IMG:http://metalarea.org/images/spectrogram/2013_Apr/7c156728b1b08a20f50c177318fd7b08.png)
Input File: 01-Drop Dead.mp3
Channels : 2
Sample Rate : 44100
Precision : 16-bit
Duration : 00:01:59.28 = 5260204 samples = 8945.93 CDDA sectors
File Size : 4.77M
Bit Rate : 320k
Sample Encoding: MPEG audio (layer I, II or III)
Comments :
Title=Drop Dead
Artist=The Final Demise
Album=Power Of Suggestion
Tracknumber=01
Year=1991
Genre=Thrash Metal



Register


Go to the top of the page
  Insert nick Quick quote
+Quote Post
 
Start new topic
Replies (1 - 2)
post Jun 19 2014, 14:10:54
Post #2

Мегаманьяк
***********
Group: Металариец
Posts: 1,690
Releases: 9
From: Madhouse
On Forums: 12 years 2 months
Thanks: 723 time(s)
Vatican City


reupload please
Go to the top of the page
  Insert nick Quick quote
+Quote Post
post Apr 15 2019, 12:51:17
Post #3

Подвал
**************
Group: Металариец
Posts: 13,268
Releases: 7488
From: Far East (Khabarovsk)
On Forums: 10 years 2 months
Thanks: 71199 time(s)
Russian Federation


new link:
Register


Go to the top of the page
  Insert nick Quick quote
+Quote Post

Reply to this topicStart new topic
2 User(s) are reading this topic (2 Guests and 0 Anonymous Users)
0 Members:

 



- Lo-Fi Version Support form
Copyrights and abuse reports form
Time is now: 19th April 2019 - 01:41:15