Welcome Guest ( Log In | Register )

> 

Здесь релизы с живыми прямыми ссылками на lossless

> Armia - Triodante (1994), Symphonic Punk Rock/Progressive Rock
post Apr 25 2013, 13:18:22
Post #1

Два Литра
**
Group: Завсегдатай
Posts: 188
Releases: 18
From: Kaunas
On Forums: 13 years 4 months
Thanks: 543 time(s)
Lithuania


(IMG:http://metalarea.org/images/audiocovers/2013_Apr/acov_tid199556_thumb.jpg)

*Artist: Armia
*Album: Triodante
*Year: 1994
*Genre: Symphonic Punk Rock/Progressive Rock
*Country: Poland (IMG:http://metalarea.org/forum/style_images/flags/Poland.png)
*Format: mp3@CBR320kbps
*Size: 150MB

Tracklist:
1. Wyludniacz 06:19
2. Popioły 06:30
3. Nieruchomo 07:17
4. Miejsce pod słońcem 10:40
5. Dzyń 03:42
6. Ciało i duch 04:54
7. Pieśń przygodna 06:18
8. Piosenka liczb 02:51
9. Święto jaskółki 05:57
10. Skończyłem rozpoczynaj 07:54
******************************
Total playing time: 1:02:22

Preview 1
Preview 2

Extended info
Adaptation of The Divine Comedy (Italian: Divina Commedia) an epic poem written by Dante Alighieri between c. 1308 and his death in 1321.


Technical info
(IMG:http://metalarea.org/images/spectrogram/2013_Apr/ab768ced47ba1b931776125bcc3b7543.png)
Input File: 05 - Dzyn.mp3
Channels : 2
Sample Rate : 44100
Precision : 16-bit
Duration : 00:03:42.12 = 9795624 samples = 16659.2 CDDA sectors
File Size : 8.89M
Bit Rate : 320k
Sample Encoding: MPEG audio (layer I, II or III)
Comments :
Title=DzyЕ„
Artist=Armia
Album=Triodante
Tracknumber=5
Year=1994
Genre=General Punk
Discnumber=1/1



Register


Go to the top of the page
  Insert nick Quick quote
+Quote Post
 
Start new topic
Replies (1 - 1)
post Feb 11 2020, 09:24:01
Post #2

Group Icon
Group: S-moderation team
Posts: 15,575
Releases: 1440
From: Zagreb
On Forums: 9 years 3 months
Thanks: 69341 time(s)
Croatia


Register

Register


Thanks:
(2) boba, Olethros,
Go to the top of the page
  Insert nick Quick quote
+Quote Post

Reply to this topicStart new topic
1 User(s) are reading this topic (1 Guests and 0 Anonymous Users)
0 Members:

 



- Lo-Fi Version Support form
Copyrights and abuse reports form
Time is now: 3rd June 2020 - 13:47:01