Welcome Guest ( Log In | Register )

 
Reply to this topicStart new topic
> Various Artists - Priming Metal Vol. I [best of/compilation] (2013), Various Metal
post Apr 25 2013, 19:58:08
Post #1

Шесть Литров
******
Group: Металариец
Posts: 637
Releases: 10
On Forums: 10 years 7 months
Thanks: 162 time(s)
Germany


(IMG:http://metalarea.org/images/audiocovers/2013_Apr/acov_tid199589_thumb.jpg)

*Artist: Various Artists
*Album: Priming Metal Vol. I [best of/compilation]
*Year: 2013
*Genre: Various Metal
*Country: Many (IMG:http://metalarea.org/forum/style_images/flags/Many.png)
*Format: mp3@CBR320kbps
*Size: 134MB

Tracklist:
01. Hitman - Hell Train
02. Incest in Heaven - Misbegotten
03. Dustriders - War Words
04. Compassion Dies - Cybernetic World
05. Abysseral Throne - Abysseral Throne
06. Anthirya - Silver Thread
07. Survival - Speed Metal Freak
08. Offender - Nuclear Winter
09. Winterblood - My Eternal Grave
10. Reveries End - Descent
11. Kröwnn - The Woodwose
******************************
Total playing time: 58:10



Technical info
(IMG:http://metalarea.org/images/spectrogram/2013_Apr/db8e3d41d113927895ff2e03308ba1ca.png)
Input File: 09 - Winterblood - My Eternal Grave.mp3
Channels : 2
Sample Rate : 44100
Precision : 16-bit
Duration : 00:06:24.64 = 16962448 samples = 28847.7 CDDA sectors
File Size : 15.5M
Bit Rate : 323k
Sample Encoding: MPEG audio (layer I, II or III)
Comments :
Title=My Eternal Grave
Artist=Winterblood
Album=Priming Metal vol. 1
Tracknumber=9
Year=2013



Register


Go to the top of the page
  Insert nick Quick quote
+Quote Post

Reply to this topicStart new topic
2 User(s) are reading this topic (2 Guests and 0 Anonymous Users)
0 Members:

 



- Lo-Fi Version Support form
Copyrights and abuse reports form
Time is now: 24th August 2019 - 17:08:40