Welcome Guest ( Log In | Register )

> Entrails - Raging Death (2013), Death Metal
post Apr 26 2013, 03:49:35
Post #1

Serial Uploader
Group Icon
Group: V.I.P
Posts: 35,195
Releases: 33410
From: Lithuania
On Forums: 10 years 11 months
Thanks: 382906 time(s)
Lithuania


(IMG:http://metalarea.org/images/audiocovers/2013_Apr/acov_tid199614_thumb.jpg)

*Artist: Entrails
*Album: Raging Death
*Year: 2013
*Genre: Death Metal
*Country: Sweden (IMG:http://metalarea.org/forum/style_images/flags/Sweden.png)
*Format: mp3@CBR320kbps
*Size: 116MB

Tracklist:
01. In Pieces 04:48
02. Carved To The Bone 04:30
03. Bloodhammer 05:12
04. Headless Dawn 04:24
05. Cadaverous Stench 05:57
06. Descend To The Beyond 05:01
07. Death League 03:58
08. Chained And Dragged 04:23
09. Defleshed 02:14
10. The Cemetery Horrors 05:24
******************************
Total playing time: 45:51

(IMG:http://metalarea.org/images/myspace.png)

Technical info
(IMG:http://metalarea.org/images/spectrogram/2013_Apr/7be0dbaaf4fb633a94d5e1b6ff2756c2.png)
Input File: 02 Carved to the Bone.mp3
Channels : 2
Sample Rate : 44100
Precision : 16-bit
Duration : 00:04:30.81 = 11942853 samples = 20311 CDDA sectors
File Size : 12.3M
Bit Rate : 364k
Sample Encoding: MPEG audio (layer I, II or III)
Comments :
Title=Carved to the Bone
Artist=Entrails
Album=Raging Death
Tracknumber=2
Year=2013
Genre=12



Register


Go to the top of the page
  Insert nick Quick quote
+Quote Post
2 Pages V  < 1 2  
Start new topic
Replies (30 - 34)
post Aug 10 2014, 04:25:09
Post #31

Правь статус, ####!111
**************
Group: Металариец
Posts: 6,301
Releases: 164
From: URUGUAY
On Forums: 12 years 7 months
Thanks: 15959 time(s)
Uruguay


320 [2 CD Edition]

Register


Thanks:
(1) samokot,
Go to the top of the page
  Insert nick Quick quote
+Quote Post
post Mar 27 2015, 15:24:00
Post #32
BAN
Banned till
Jun 15 2019, 17:50:12



Сэр прав - альбом разуплотняет не хуже предыдущих. Не понимаю, что здесь всем не нравится...
Go to the top of the page
  Insert nick Quick quote
+Quote Post
post May 20 2015, 13:09:26
Post #33

_ - = # Thrashogolic # = - _ ... а давайте поржём все вместе
**************
Group: Металариец
Posts: 21,095
Releases: 4444
From: 404
On Forums: 8 years 11 months
Thanks: 27473 time(s)
Ukraine


Некая трэшавость? (IMG:style_emoticons/default/hmm.gif)
Go to the top of the page
  Insert nick Quick quote
+Quote Post
post Jun 13 2015, 03:19:19
Post #34

Going home. Flying high.
**************
Group: Металариец
Posts: 12,760
Releases: 0
From: The Land of Shadows
On Forums: 12 years 9 months
Thanks: 19795 time(s)
Russian Federation


320 kbps @ CD-rip (2CD edition)
CD1 - Raging Death
CD2 - Hell at Party San 2012
Register

Go to the top of the page
  Insert nick Quick quote
+Quote Post
post Jan 11 2019, 18:09:44
Post #35

Full-of-Hate
**************
Group: Металариец
Posts: 2,945
Releases: 0
From: Moscow
On Forums: 9 years 10 months
Thanks: 2236 time(s)
Russian Federation


В лимитед эдишн вошел кавер на старого Мардука


Если честно, ни альбом, ни кавер не заставляют вернуться к пласту больше одного-двух раз. Ентрейлс вроде как за десятилетие сознательного творчества и стали маленькой величиной с бэк-каталогом в пять полноформатов, в моих глазах остаются жуткой посредственностью.
Go to the top of the page
  Insert nick Quick quote
+Quote Post

2 Pages V  < 1 2
Reply to this topicStart new topic
2 User(s) are reading this topic (2 Guests and 0 Anonymous Users)
0 Members:

 



- Lo-Fi Version Support form
Copyrights and abuse reports form
Time is now: 24th May 2019 - 12:21:43