Welcome Guest ( Log In | Register )

> 

Здесь релизы с живыми прямыми ссылками на lossless

 
Reply to this topicStart new topic
> Exit - Együtt A Szeméttel (1991), Thrash Metal
post Apr 26 2013, 22:09:11
Post #1

Serial Uploader
Group Icon
Group: V.I.P
Posts: 37,112
Releases: 35296
From: Lithuania
On Forums: 11 years 9 months
Thanks: 418060 time(s)
Lithuania


(IMG:http://metalarea.org/images/audiocovers/2013_Apr/acov_uid41155_398590ca11c8adb3c647619f147eb0c2_thumb.jpg)

*Artist: Exit
*Album: Együtt A Szeméttel
*Year: 1991
*Genre: Thrash Metal
*Country: Hungary (IMG:http://metalarea.org/forum/style_images/flags/Hungary.png)
*Format: mp3@VBR293kbps
*Size: 96MB

Tracklist:
01. Te... 05:15
02. Magány 03:59
03. A Köd 05:14
04. Együtt A Szeméttel 05:53
05. Légy Átkozott! 03:23
06. Sápadt Arcok 04:01
07. Szerepcsere 03:53
08. Igazság 04:25
09. Amikor Az Élök A Holtakat Irigylik 05:19
10. Üres Kín 05:01
******************************
Total playing time: 46:23

(IMG:http://metalarea.org/images/youtube.png)

Extended info
(IMG:http://metalarea.org/images/spectrogram/2013_Apr/560deaace25b76524c204851cc5aefd7.png)
Input File: 107-exit-szerepcsere.mp3
Channels : 2
Sample Rate : 44100
Precision : 16-bit
Duration : 00:03:53.53 = 10298805 samples = 17515 CDDA sectors
File Size : 8.83M
Bit Rate : 303k
Sample Encoding: MPEG audio (layer I, II or III)
Comments :
Title=Szerepcsere
Artist=Exit
Album=EgyГјtt A SzemГ©ttel
Tracknumber=7/12
Year=2011-00-00
Genre=Thrash Metal
Discnumber=1/2


Register


Go to the top of the page
  Insert nick Quick quote
+Quote Post
post Nov 15 2016, 11:21:14
Post #2

Подвал
**************
Group: Металариец
Posts: 14,328
Releases: 8107
From: Far East (Khabarovsk)
On Forums: 11 years 2 months
Thanks: 81387 time(s)
Russian Federation


VBR 145 kbps:
Register


Go to the top of the page
  Insert nick Quick quote
+Quote Post
post Jan 9 2020, 14:30:18
Post #3

Пять Литров
*****
Group: Металариец
Posts: 423
Releases: 2
From: istanbul
On Forums: 11 years 5 months
Thanks: 90 time(s)
Turkey


Do you guys have this release that was released on CD?
https://www.metal-archives.com/albums/Exit/...Yayol%21/326552
Go to the top of the page
  Insert nick Quick quote
+Quote Post
post Jan 10 2020, 09:17:22
Post #4


Group Icon
Group: S-moderation team
Posts: 14,859
Releases: 1440
From: Zagreb
On Forums: 9 years 1 month
Thanks: 65003 time(s)
Croatia


Register


Thanks:
(2) boba, Olethros,
Go to the top of the page
  Insert nick Quick quote
+Quote Post

Reply to this topicStart new topic
1 User(s) are reading this topic (1 Guests and 0 Anonymous Users)
0 Members:

 



- Lo-Fi Version Support form
Copyrights and abuse reports form
Time is now: 31st March 2020 - 21:26:25