Welcome Guest ( Log In | Register )

> Dying Angel - Mirror Of Truth (1996), Death/Doom Metal
post Apr 27 2013, 10:40:45
Post #1

=(
Group Icon
Group: Moderation team
Posts: 6,406
Releases: 2059
On Forums: 13 years 11 months
Thanks: 64308 time(s)
Saudi Arabia


(IMG:http://metalarea.org/images/audiocovers/2013_Apr/acov_tid199702_thumb.jpg)

*Artist: Dying Angel
*Album: Mirror Of Truth
*Year: 1996
*Genre: Death/Doom Metal
*Country: Germany (IMG:http://metalarea.org/forum/style_images/flags/Germany.png)
*Format: mp3@CBR320kbps
*Size: 141MB

Tracklist:
01. Infected 8:27
02. Merciless Pain 5:41
03. Deep Burning 5:48
04. Goring Your God 4:34
05. Irreconcilable 3:53
06. Misery on Earth 4:37
07. Hooded Crow 8:39
08. Ice Age 2:41
09. In Grief 7:56
10. Unpredictable Nature 6:26
******************************
Total playing time: 58:42

Technical info
(IMG:http://metalarea.org/images/spectrogram/2013_Apr/b4967ff044ca03b8e2818497ffabd138.png)
Input File: 05. Irreconcilable.mp3
Channels : 2
Sample Rate : 44100
Precision : 16-bit
Duration : 00:03:52.84 = 10268244 samples = 17463 CDDA sectors
File Size : 9.34M
Bit Rate : 321k
Sample Encoding: MPEG audio (layer I, II or III)
Comments :
Title=Irreconcilable
Artist=Dying Angel
Album=Mirror of Truth
Tracknumber=05/10
Year=1996
Genre=Death Metal



Register


Go to the top of the page
  Insert nick Quick quote
+Quote Post
 
Start new topic
Replies (1 - 10)
post Apr 28 2013, 10:10:11
Post #2

практически всеядное
****
Group: Металариец
Posts: 346
Releases: 0
On Forums: 11 years 3 months
Thanks: 192 time(s)
Russian Federation


Отличный музон. Откуда это вдруг откопалось и куда кануло. Не нашел ни чего более.
Go to the top of the page
  Insert nick Quick quote
+Quote Post
post Jun 12 2013, 08:54:16
Post #3

Маньяк
**********
Group: Металариец
Posts: 1,414
Releases: 0
From: Рівне
On Forums: 11 years 4 months
Thanks: 145 time(s)
Ukraine


Go to the top of the page
  Insert nick Quick quote
+Quote Post
post Dec 31 2015, 19:12:27
Post #4

Два Литра
**
Group: Завсегдатай
Posts: 133
Releases: 0
On Forums: 11 years 4 months
Thanks: 10 time(s)
Russian Federation


Re-up this underrated gem, please!
Go to the top of the page
  Insert nick Quick quote
+Quote Post
post Jan 1 2016, 13:17:18
Post #5

Маньяк
**********
Group: Металариец
Posts: 1,108
Releases: 0
On Forums: 9 years 2 months
Thanks: 520 time(s)
Unknown


Unbelievable that there's no other source anywhere.....
Go to the top of the page
  Insert nick Quick quote
+Quote Post
post Jan 1 2016, 17:55:50
Post #6

Два Литра
**
Group: Завсегдатай
Posts: 133
Releases: 0
On Forums: 11 years 4 months
Thanks: 10 time(s)
Russian Federation


I spent twenty minutes googling for a working link, and found none. Maybe there is a source I don't know of? I searched blogs, mediafire, Ifolder, Uloz, VK Wall, etc....
Go to the top of the page
  Insert nick Quick quote
+Quote Post
post Jan 1 2016, 18:14:45
Post #7

Правь статус, ####!111
**************
Group: Металариец
Posts: 3,090
Releases: 0
From: Москва
On Forums: 12 years 5 months
Thanks: 486 time(s)
Russian Federation


А перезалить можно ?
Go to the top of the page
  Insert nick Quick quote
+Quote Post
post Jan 1 2016, 19:42:20
Post #8

Пять Литров
*****
Group: Металариец
Posts: 412
Releases: 140
On Forums: 13 years 7 months
Thanks: 1602 time(s)
Ukraine


Стащил с трекера, угощайтесь
Register


Thanks:
Go to the top of the page
  Insert nick Quick quote
+Quote Post
post Aug 1 2020, 22:37:57
Post #9

Group: Дух
Posts: 6
Releases: 0
On Forums: 4 years 3 months
Thanks: 0 time(s)
United Kingdom


Would anyone be able to upload this hidden gem. I've just discovered it but can't find a copy of it anywhere..ultra obscure. Thank You.
Go to the top of the page
  Insert nick Quick quote
+Quote Post
post Aug 1 2020, 23:20:45
Post #10

Пять Литров
*****
Group: Металариец
Posts: 487
Releases: 1
On Forums: 6 years 11 months
Thanks: 328 time(s)
Spain


Register


Thanks:
Go to the top of the page
  Insert nick Quick quote
+Quote Post
post Yesterday, 01:20:19
Post #11

Group: Дух
Posts: 6
Releases: 0
On Forums: 4 years 3 months
Thanks: 0 time(s)
United Kingdom


Brilliant Pinhead666. Thank you so much.
Go to the top of the page
  Insert nick Quick quote
+Quote Post

Reply to this topicStart new topic
1 User(s) are reading this topic (1 Guests and 0 Anonymous Users)
0 Members:

 



- Lo-Fi Version Support form
Copyrights and abuse reports form
Time is now: 3rd August 2020 - 11:06:42