Welcome Guest ( Log In | Register )

> Black Rock - Black Rock [demo] (2013), Heavy/Black/Speed Metal
post May 2 2013, 15:35:17
Post #1

Serial Uploader
Group Icon
Group: V.I.P
Posts: 38,932
Releases: 37068
From: Lithuania
On Forums: 14 years 3 months
Thanks: 463013 time(s)
Lithuania


(IMG:http://metalarea.org/images/audiocovers/2013_May/acov_tid200155_thumb.jpg)

*Artist: Black Rock
*Album: Black Rock [demo]
*Year: 2013
*Genre: Heavy/Black/Speed Metal
*Country: Finland (IMG:http://metalarea.org/forum/style_images/flags/Finland.png)
*Format: mp3@CBR320kbps
*Size: 33MB

Tracklist:
01. Black Rock 03:06
02. The Forbidden Portal 02:31
03. The Phantom Sailor 03:48
04. Into The Dungeon 04:22
******************************
Total playing time: 13:47



Technical info
(IMG:http://metalarea.org/images/spectrogram/2013_May/e2a312cb4311d71e7d31add5fb0b58a5.png)
Input File: 02 The Forbidden Portal.mp3
Channels : 2
Sample Rate : 44100
Precision : 16-bit
Duration : 00:02:31.52 = 6682208 samples = 11364.3 CDDA sectors
File Size : 6.33M
Bit Rate : 334k
Sample Encoding: MPEG audio (layer I, II or III)
Comments :
Title=The Forbidden Portal
Artist=Black Rock
Album=Black Rock
Tracknumber=2
Year=2013



Register


Go to the top of the page
  Insert nick Quick quote
+Quote Post
 
Start new topic
Replies (1 - 2)
post May 2 2013, 16:01:38
Post #2

Trickster
Group Icon
Group: V.I.P
Posts: 5,166
Releases: 318
On Forums: 11 years 7 months
Thanks: 13853 time(s)
Russian Federation


Неплохой финский проект. Очень хороший такой, злой хэви-метал. Отслушал 2 месяца назад @ Доволен


Thanks:
(1) ulluth,
Go to the top of the page
  Insert nick Quick quote
+Quote Post
post Oct 28 2017, 07:40:36
Post #3

Правь статус, ####!111
Group Icon
Group: S-moderation team
Posts: 22,058
Releases: 1443
On Forums: 11 years 6 months
Thanks: 112911 time(s)
Unknown


Register


Go to the top of the page
  Insert nick Quick quote
+Quote Post

Reply to this topicStart new topic
1 User(s) are reading this topic (1 Guests and 0 Anonymous Users)
0 Members:

 



- Lo-Fi Version Support form
Copyrights and abuse reports form
Time is now: 25th September 2022 - 09:42:12