Welcome Guest ( Log In | Register )

> Space Witch - The Alchemy Paradox [ep] (2013), Instrumental Sludge/Doom Metal
post May 4 2013, 21:51:54
Post #1

Serial Uploader
Group Icon
Group: V.I.P
Posts: 37,612
Releases: 35784
From: Lithuania
On Forums: 13 years 3 months
Thanks: 433494 time(s)
Lithuania


(IMG:http://metalarea.org/images/audiocovers/2013_May/acov_tid200301_thumb.jpg)

*Artist: Space Witch
*Album: The Alchemy Paradox [ep]
*Year: 2013
*Genre: Instrumental Sludge/Doom Metal
*Country: United Kingdom (IMG:http://metalarea.org/forum/style_images/flags/United%20Kingdom.png)
*Format: mp3@CBR320kbps
*Size: 75MB

Tracklist:
01. Hang The Witch 12:57
02. Cosmic Cauldron 13:44
03. Black Pyramid 06:08
******************************
Total playing time: 32:49



Technical info
(IMG:http://metalarea.org/images/spectrogram/2013_May/f32bc51d263aa5502d4174ed5745f49c.png)
Input File: 03. Black Pyramid.mp3
Channels : 2
Sample Rate : 44100
Precision : 16-bit
Duration : 00:06:08.65 = 16257509 samples = 27648.8 CDDA sectors
File Size : 14.7M
Bit Rate : 320k
Sample Encoding: MPEG audio (layer I, II or III)
Comments :
Title=Black Pyramid
Artist=Space Witch
Album=The Alchemy Paradox - EP - 2013
Tracknumber=3
Year=2013



Register


Go to the top of the page
  Insert nick Quick quote
+Quote Post
 
Start new topic
Replies (1 - 1)
post May 16 2013, 20:39:01
Post #2

Правь статус, ####!111
**************
Group: Металариец
Posts: 49,203
Releases: 868
On Forums: 12 years 3 months
Thanks: 44632 time(s)
Russian Federation


Классный ЖИРНЫЙ ТРАВЯНОЙ ПСИХОДЕЛИЧНЫЙ стонеряка. Достойнейший релиз. Инструментальные риффы наваливаются тонным монолитом, не оставляя и следа от человека.

КРАЙНЕ рекомендую!
Go to the top of the page
  Insert nick Quick quote
+Quote Post

Reply to this topicStart new topic
1 User(s) are reading this topic (1 Guests and 0 Anonymous Users)
0 Members:

 



- Lo-Fi Version Support form
Copyrights and abuse reports form
Time is now: 16th September 2021 - 22:06:57