Welcome Guest ( Log In | Register )

> Inferis - Obscure Rituals Of Death And Destruction (2013), Death Metal (D5)
post May 9 2013, 15:43:30
Post #1

Serial Uploader
Group Icon
Group: V.I.P
Posts: 33,065
Releases: 31350
From: Lithuania
On Forums: 10 years 3 months
Thanks: 358645 time(s)
Lithuania


(IMG:http://metalarea.org/images/audiocovers/2013_May/acov_tid200570_thumb.jpg)

*Artist: Inferis
*Album: Obscure Rituals Of Death And Destruction
*Year: 2013
*Genre: Death Metal
*Country: Chile (IMG:http://metalarea.org/forum/style_images/flags/Chile.png)
*Format: mp3@CBR320kbps
*Size: 119MB

Tracklist:
01. The Necromancer Begins The Ritual (Intro) 01:11
02. Skull And Bones To The Altar 04:02
03. Thou Who Lurks In The Nightmares 04:36
04. Black Blood Rituals 05:10
05. Nexion With The Infernal Spirits 04:35
06. Visions From An Apocalyptic Environment 02:55
07. Leviathan's Dream (We Will Wake You Up With Our Prayers) 06:03
08. Prayer To Leviathan 03:49
09. In The Path Of Malignant Spirits 07:34
******************************
Total playing time: 39:55

(IMG:http://metalarea.org/images/myspace.png)

Extended info
CD-rip


Technical info
(IMG:http://metalarea.org/images/spectrogram/2013_May/c86f171881050505d1b716e13068d805.png)
Input File: (08) [Inferis] Prayer To Leviathan.mp3
Channels : 2
Sample Rate : 44100
Precision : 16-bit
Duration : 00:03:49.41 = 10116981 samples = 17205.8 CDDA sectors
File Size : 9.18M
Bit Rate : 320k
Sample Encoding: MPEG audio (layer I, II or III)
Comments :
Title=Prayer To Leviathan
Artist=Inferis
Album=Obscure Rituals Of Death and Destruction
Tracknumber=08
Genre=



Register


Go to the top of the page
  Insert nick Quick quote
+Quote Post
 
Start new topic
Replies (1 - 4)
post May 12 2013, 18:10:09
Post #2

Статус-хиатус
**************
Group: Металариец
Posts: 2,635
Releases: 7
From: гости
On Forums: 11 years 1 week
Thanks: 1051 time(s)
Ukraine


Go to the top of the page
  Insert nick Quick quote
+Quote Post
post Jul 25 2013, 20:52:37
Post #3

Brutal Orthodox
******
Group: Металариец
Posts: 657
Releases: 8
On Forums: 9 years 3 months
Thanks: 407 time(s)
Unknown


качественная молотилка
Go to the top of the page
  Insert nick Quick quote
+Quote Post
post Dec 22 2013, 17:22:50
Post #4

Музыкальная помойка {mazafaker халявосук}
**************
Group: Металариец
Posts: 2,219
Releases: 97
On Forums: 12 years 8 months
Thanks: 960 time(s)
Russian Federation


Вкусно и без приправ. Полная тарелка отборного сырого мяса, которое так полезно и легко усваяется. Не забудьте отмыть руки от крови.
Go to the top of the page
  Insert nick Quick quote
+Quote Post
post Jun 12 2018, 19:43:19
Post #5

Going home. Flying high.
**************
Group: Металариец
Posts: 12,275
Releases: 0
From: The Land of Shadows
On Forums: 12 years 1 month
Thanks: 17511 time(s)
Russian Federation


from the web - lossless
Register
Go to the top of the page
  Insert nick Quick quote
+Quote Post

Reply to this topicStart new topic
1 User(s) are reading this topic (1 Guests and 0 Anonymous Users)
0 Members:

 



- Lo-Fi Version Support form
Copyrights and abuse reports form
Time is now: 23rd September 2018 - 16:47:25