Welcome Guest ( Log In | Register )

> 

Здесь релизы с живыми прямыми ссылками на lossless

> Lantern - Below (2013), Black/Death Metal
post May 10 2013, 19:47:29
Post #1

Serial Uploader
Group Icon
Group: V.I.P
Posts: 37,532
Releases: 35706
From: Lithuania
On Forums: 12 years 10 months
Thanks: 431399 time(s)
Lithuania


(IMG:http://metalarea.org/images/audiocovers/2013_May/acov_tid200686_thumb.jpg)

*Artist: Lantern
*Album: Below
*Year: 2013
*Genre: Black/Death Metal
*Country: Finland (IMG:http://metalarea.org/forum/style_images/flags/Finland.png)
*Format: mp3@CBR320kbps
*Size: 88MB

Tracklist:
01. Rites Of Descent 05:37
02. Revenant 05:27
03. Entrenching Presences 07:28
04. Manifesting Shambolic Aura 04:23
05. Demons In My Room 04:34
06. Below 01:40
07. From The Ruins 09:06
******************************
Total playing time: 38:15



Extended info

(IMG:http://metalarea.org/images/spectrogram/2013_May/134c17defb5c7f8e94ccd1eed1db847f.png)
Input File: 01. Rites of Descent.mp3
Channels : 2
Sample Rate : 44100
Precision : 16-bit
Duration : 00:05:37.74 = 14894422 samples = 25330.6 CDDA sectors
File Size : 13.7M
Bit Rate : 325k
Sample Encoding: MPEG audio (layer I, II or III)
Comments :
Title=Rites of Descent
Artist=Lantern
Album=Below
Tracknumber=1
Year=2013



Register


Go to the top of the page
  Insert nick Quick quote
+Quote Post
 
Start new topic
Replies (1 - 9)
post May 23 2013, 07:18:11
Post #2

satanath@mail.ru
Group Icon
Group: Moderation team
Posts: 6,135
Releases: 645
From: Satan-Petersburg
On Forums: 10 years 5 months
Thanks: 15536 time(s)
Russian Federation


Updated links by necroscum


Thanks:
(1) DarkHorde,
Go to the top of the page
  Insert nick Quick quote
+Quote Post
inatas_eva_89
post May 26 2013, 14:05:22
Post #3

Guests team






Красивейший атмосферный дез. ОСТРОЖНО! затягивает
Go to the top of the page
  Insert nick Quick quote
+Quote Post
post Jun 1 2013, 05:02:26
Post #4

Четыре Литра
****
Group: Металариец
Posts: 339
Releases: 0
On Forums: 12 years 3 months
Thanks: 59 time(s)
Russian Federation


Re-up!
Go to the top of the page
  Insert nick Quick quote
+Quote Post
post Jun 4 2013, 21:02:31
Post #5

Мегаманьяк
***********
Group: Металариец
Posts: 1,828
Releases: 70
On Forums: 13 years 6 months
Thanks: 3077 time(s)
Russian Federation


Перезалито.
Register


Go to the top of the page
  Insert nick Quick quote
+Quote Post
post Jun 4 2013, 21:05:03
Post #6

Правдоруб)
**************
Group: Металариец
Posts: 2,277
Releases: 1
From: Украина, Днепр
On Forums: 7 years 10 months
Thanks: 1898 time(s)
Ukraine


ЦИТАТА(inatas_eva_89 @ May 26 2013, 14:05:22) *
Красивейший атмосферный дез. ОСТРОЖНО! затягивает

Хм... Даже так. Спасибо за рекомендацию, послушаю... Никогда раньше их не слышал.
Go to the top of the page
  Insert nick Quick quote
+Quote Post
post Nov 9 2013, 20:56:03
Post #7

Crush! Kill! Destroy!
**************
Group: Металариец
Posts: 5,680
Releases: 15
From: Kaliningrad
On Forums: 13 years 5 months
Thanks: 5397 time(s)
Russian Federation


Господа граждане товарищи! А сохатым нельзя разжиться?
Go to the top of the page
  Insert nick Quick quote
+Quote Post
post Mar 7 2019, 05:58:01
Post #8

Group Icon
Group: S-moderation team
Posts: 20,347
Releases: 1441
From: Zagreb
On Forums: 10 years 1 month
Thanks: 93225 time(s)
Croatia


Register


Go to the top of the page
  Insert nick Quick quote
+Quote Post
post Jul 3 2020, 21:52:39
Post #9

Шесть Литров
******
Group: Металариец
Posts: 608
Releases: 1
From: АР Крым, Симферополь
On Forums: 13 years 2 weeks
Thanks: 309 time(s)
Russian Federation


Вот это чёткое рубилово и вдобавок ещё и атмосферное местами, вот это я понимаю!!! :up: (IMG:style_emoticons/default/20.gif) (IMG:style_emoticons/default/pray.gif)

Ждем 10-ое число и новый (уже 3-ий) по счету альбом от дуэта этих олдскульных финнов.


Thanks:
Go to the top of the page
  Insert nick Quick quote
+Quote Post
post Jul 3 2020, 22:31:53
Post #10

Правь статус, ####!111
**************
Group: Металариец
Posts: 25,773
Releases: 18452
From: Г.Харьков
On Forums: 8 years 11 months
Thanks: 364223 time(s)
Unknown


ЦИТАТА(Leshiy666 @ 3rd July 2020 - 21:52:39) *
Ждем 10-ое число и новый (уже 3-ий) по счету альбом от дуэта этих олдскульных финнов

Уже на модерации со вчерашнего дня висит! (IMG:style_emoticons/default/smile3.gif)
Go to the top of the page
  Insert nick Quick quote
+Quote Post

Reply to this topicStart new topic
2 User(s) are reading this topic (2 Guests and 0 Anonymous Users)
0 Members:

 



- Lo-Fi Version Support form
Copyrights and abuse reports form
Time is now: 18th April 2021 - 01:27:26