Welcome Guest ( Log In | Register )

> И неформату есть предел.

Рэп/хип-хоп/шансон/поп удаляются. Для них есть свои порталы.

> Lucyfire - The Pain Song [ep] (2001), Gothic Rock
post May 11 2013, 04:49:56
Post #1

Семь Литров
*******
Group: Металариец
Posts: 706
Releases: 31
From: Vladivostok
On Forums: 10 years 1 month
Thanks: 1027 time(s)
Russian Federation


(IMG:http://metalarea.org/images/audiocovers/2013_May/acov_tid200706_thumb.jpg)

*Artist: Lucyfire
*Album: The Pain Song [ep]
*Year: 2001
*Genre: Gothic Rock
*Country: Sweden (IMG:http://metalarea.org/forum/style_images/flags/Sweden.png)
*Format: mp3@CBR320kbps
*Size: 67MB

Tracklist:
01. The Pain Song (4:28)
02. You Can Have All My Love Tonite (3:42)
03. Devil Blues (4:53)
04. The Pain Song (Remix By Element & S.P.K.) (4:53)
******************************
Total playing time: 17:56

Extended info
проект Johan Edlund (Tiamat)


Technical info
(IMG:http://metalarea.org/images/spectrogram/2013_May/87c812e8bd52fd3d8ec889a1c3222ba7.png)
Input File: 01 - The Pain Song.mp3
Channels : 2
Sample Rate : 44100
Precision : 16-bit
Duration : 00:04:28.46 = 11839174 samples = 20134.6 CDDA sectors
File Size : 10.7M
Bit Rate : 320k
Sample Encoding: MPEG audio (layer I, II or III)
Comments :
Title=The Pain Song
Artist=Lucyfire
Album=The Pain Song
Tracknumber=1/4
Year=2001



Register


Go to the top of the page
  Insert nick Quick quote
+Quote Post
 
Start new topic
Replies (1 - 6)
post May 29 2013, 20:12:25
Post #2

Правь статус, ####!111
**************
Group: Металариец
Posts: 2,062
Releases: 0
From: Мытищи
On Forums: 11 years 9 months
Thanks: 1180 time(s)
Russian Federation


Кстати говоря, ипишка хороша! Конечно ничем супер оригинальным в этом проекте Эдлунд не удивит, но свой уровень держит.
Go to the top of the page
  Insert nick Quick quote
+Quote Post
post Feb 18 2019, 09:16:52
Post #3

Маньяк
**********
Group: Металариец
Posts: 1,222
Releases: 92
On Forums: 6 years 1 month
Thanks: 2543 time(s)
Unknown


Reuploaded Mp3 CBR 320
Register
Go to the top of the page
  Insert nick Quick quote
+Quote Post
post Dec 2 2019, 22:06:10
Post #4

HV/DC
******
Group: Металариец
Posts: 616
Releases: 0
From: Folkestone, Kent
On Forums: 12 years 10 months
Thanks: 136 time(s)
United Kingdom


блин, 18 лет прошло, а лишь The Pain Song вставила неподецки, остальное в этом проэкте - шлак
Go to the top of the page
  Insert nick Quick quote
+Quote Post
post Dec 3 2019, 11:27:46
Post #5

Мегаманьяк
***********
Group: Металариец
Posts: 1,770
Releases: 0
From: Харьков
On Forums: 10 years 2 months
Thanks: 749 time(s)
Ukraine


Отличный проект, ничем не хуже Тиамат периода 1999-2003 гг. (и интереснее, чем The Scarred People как по мне).

ЦИТАТА(zyklon @ Dec 2 2019, 23:06:10) *
лишь The Pain Song вставила неподецки, остальное в этом проэкте - шлак

Я эту песню никогда особо не выделял, кроме того, что на нее клип снят (кстати, просто шикарный):

Go to the top of the page
  Insert nick Quick quote
+Quote Post
post Dec 3 2019, 12:26:08
Post #6

Ледоруб
**************
Group: Металариец
Posts: 23,637
Releases: 0
From: Санкт-Петербург
On Forums: 10 years 3 months
Thanks: 7941 time(s)
Russian Federation


ЦИТАТА(Ghostb @ 3rd December 2019 - 13:27:46) *
(и интереснее, чем The Scarred People как по мне)

Много что интереснее него.


Thanks:
(1) Ghostb,
Go to the top of the page
  Insert nick Quick quote
+Quote Post
post Dec 3 2019, 14:15:53
Post #7

Два Литра
**
Group: Завсегдатай
Posts: 192
Releases: 0
On Forums: 2 weeks 4 days
Thanks: 121 time(s)
Russian Federation


Что всегда здорово получается у Эдлунда - передавать особое настроение того готик рока эпигоном которого он сам и является.


Thanks:
(1) Ghostb,
Go to the top of the page
  Insert nick Quick quote
+Quote Post

Reply to this topicStart new topic
2 User(s) are reading this topic (2 Guests and 0 Anonymous Users)
0 Members:

 



- Lo-Fi Version Support form
Copyrights and abuse reports form
Time is now: 16th December 2019 - 12:13:29