Welcome Guest ( Log In | Register )

> TesseracT - Altered State (2013), Math Metal/Ambient (D6)
post May 12 2013, 14:13:08
Post #1

Serial Uploader
Group Icon
Group: V.I.P
Posts: 35,215
Releases: 33430
From: Lithuania
On Forums: 10 years 11 months
Thanks: 383283 time(s)
Lithuania


(IMG:http://metalarea.org/images/audiocovers/2013_May/acov_tid200812_thumb.jpg)

*Artist: TesseracT
*Album: Altered State
*Year: 2013
*Genre: Math Metal/Ambient
*Country: United Kingdom (IMG:http://metalarea.org/forum/style_images/flags/United%20Kingdom.png)
*Format: mp3@CBR320kbps
*Size: 123MB

Tracklist:
01. Of Matter - Proxy 05:04
02. Of Matter - Retrospect 05:32
03. Of Matter - Resist 03:40
04. Of Mind - Nocturne 05:50
05. Of Mind - Exile 08:50
06. Of Reality - Eclipse 05:03
07. Of Reality – Palingenesis 02:46
08. Of Reality – Calabi-Yau 02:00
09. Of Energy – Singularity 08:20
10. Of Energy – Embers 03:36
******************************
Total playing time: 50:41

(IMG:http://metalarea.org/images/myspace.png)

Technical info
(IMG:http://metalarea.org/images/spectrogram/2013_May/f1ed264b389dc5d221bc11442efc547e.png)
Input File: 04 Of Mind - Nocturne.mp3
Channels : 2
Sample Rate : 44100
Precision : 16-bit
Duration : 00:05:50.44 = 15454492 samples = 26283.1 CDDA sectors
File Size : 14.7M
Bit Rate : 337k
Sample Encoding: MPEG audio (layer I, II or III)
Comments :
Title=Of Mind - Nocturne
Artist=TesseracT
Album=Altered State
Tracknumber=4/10
Year=2013
Genre=9
Discnumber=1/1



Register


Go to the top of the page
  Insert nick Quick quote
+Quote Post
2 Pages V  < 1 2  
Start new topic
Replies (30 - 33)
post Jul 22 2014, 12:16:24
Post #31

Lucifer Calling
**
Group: Завсегдатай
Posts: 167
Releases: 1
From: India
On Forums: 12 years 4 months
Thanks: 107 time(s)
India


Mp3@320 Kbps

Register
Go to the top of the page
  Insert nick Quick quote
+Quote Post
post Feb 19 2016, 19:06:34
Post #32

Литр
*
Group: Подсевший
Posts: 69
Releases: 0
From: Santiago, Chile
On Forums: 7 years 2 weeks
Thanks: 14 time(s)
Chile


re-upload please
Go to the top of the page
  Insert nick Quick quote
+Quote Post
post Mar 15 2019, 14:19:32
Post #33

Правь статус, ####!111
**************
Group: Металариец
Posts: 3,475
Releases: 9
From: Москва и МО
On Forums: 12 years 10 months
Thanks: 867 time(s)
Russian Federation


Пожалуй, самый сильный альбом Tesseract с точки зрения хитового материала и крутых риффов. И лучше уже, пожалуй, не сделают.
Новый вокалист раскрыл весь свой потенциал (в новых песнях вне Tesseract как-то я не вижу, чтобы он использовал весь свой диапазон). Лив записи в студии поражают и аж не верится, что в живую. Как бы я ни любил Дэниела, у него все же на живых записях чувствуются определенные недоработки.
Материал потрясающе разнообразен.

10 из 10 без вопросов.

P.S. Вокал Аше совсем не похож на женский (IMG:style_emoticons/default/smile1.gif)


Thanks:
(1) Ingvar,
Go to the top of the page
  Insert nick Quick quote
+Quote Post
post Mar 15 2019, 14:44:08
Post #34

Правь статус, ####!111
**************
Group: Металариец
Posts: 2,128
Releases: 0
On Forums: 10 months 3 weeks
Thanks: 1459 time(s)
Russian Federation


122 mb/320 kbps
Register


Thanks:
(1) Metalass,
Go to the top of the page
  Insert nick Quick quote
+Quote Post

2 Pages V  < 1 2
Reply to this topicStart new topic
1 User(s) are reading this topic (1 Guests and 0 Anonymous Users)
0 Members:

 



- Lo-Fi Version Support form
Copyrights and abuse reports form
Time is now: 26th May 2019 - 07:59:57