Welcome Guest ( Log In | Register )

> Various Artists - Pest Records Online Compilation Vol. 14 [best of/compilation] (2013), Black/Death Metal
post May 22 2013, 00:34:09
Post #1

Шесть Литров
******
Group: Металариец
Posts: 637
Releases: 10
On Forums: 10 years 7 months
Thanks: 162 time(s)
Germany


(IMG:http://metalarea.org/images/audiocovers/2013_May/acov_tid201467_thumb.jpg)

*Artist: Various Artists
*Album: Pest Records Online Compilation Vol. 14 [best of/compilation]
*Year: 2013
*Genre: Black/Death Metal
*Country: Many (IMG:http://metalarea.org/forum/style_images/flags/Many.png)
*Format: mp3@CBR320kbps
*Size: 140MB

Tracklist:
01. Algide - La Marche Funebre
02. Antiquus Infestus - Moorfields
03. Beast - Black Death
04. Conquerror - Snakes of Light
05. Exodia- Fight my Cock and your Palate
06. Frostagrath - Into A Dimensional Timeless Void
07. L'endevi - Red Ivy
08. Markradonn - Internal Hate Unbounded
09. Nostalgia - Estás muerta
10. Plutonium - Zero Swarm
11. Prayer of the Dying with Daniel Bezzina - God's Failed Creation
12. Ravenfrost - To Envy The Nameless Dead
13. Sarkrista - Wrath Incarnation
14. Winterblood - Raserei des Meeres
******************************
Total playing time: 1:20:32

Technical info
(IMG:http://metalarea.org/images/spectrogram/2013_May/a702b9772e08bf27981c7e45e7d17cc6.png)
Input File: 14. Winterblood - Raserei des Meeres.mp3
Channels : 2
Sample Rate : 44100
Precision : 16-bit
Duration : 00:10:08.26 = 26824266 samples = 45619.5 CDDA sectors
File Size : 24.3M
Bit Rate : 320k
Sample Encoding: MPEG audio (layer I, II or III)
Comments :
Title=Raserei des Meeres
Artist=Winterblood
Album=Pest Records Online Compilation Vol. 14
Tracknumber=14
Year=2013
Genre=Avant-garde Black Metal with Opera Vocals



Register


Go to the top of the page
  Insert nick Quick quote
+Quote Post
 
Start new topic
Replies (1 - 1)
post May 22 2013, 08:03:12
Post #2

Социопат.Маргинал. Мизантроп.Нигилист. Перверзный нарциссист.
**************
Group: Металариец
Posts: 5,537
Releases: 667
From: Город-герой Ленинград
On Forums: 8 years 6 months
Thanks: 6203 time(s)
Russian Federation


Не шибко знакомые коллективы-то (IMG:style_emoticons/default/hmm.gif)
Go to the top of the page
  Insert nick Quick quote
+Quote Post

Reply to this topicStart new topic
2 User(s) are reading this topic (2 Guests and 0 Anonymous Users)
0 Members:

 



- Lo-Fi Version Support form
Copyrights and abuse reports form
Time is now: 19th August 2019 - 06:49:24