Welcome Guest ( Log In | Register )

> Trinity - Trinity (2013), Atmospheric Black Metal
post May 24 2013, 06:17:00
Post #1

Serial Uploader
Group Icon
Group: V.I.P
Posts: 36,586
Releases: 34772
From: Lithuania
On Forums: 11 years 5 months
Thanks: 407070 time(s)
Lithuania


(IMG:http://metalarea.org/images/audiocovers/2013_May/acov_tid201611_thumb.jpg)

*Artist: Trinity
*Album: Trinity
*Year: 2013
*Genre: Atmospheric Black Metal
*Country: United States (IMG:http://metalarea.org/forum/style_images/flags/United%20States.png)
*Format: mp3@CBR320kbps
*Size: 85MB

Tracklist:
01. Last Evening 02:46
02. Entwine 06:34
03. Eve 07:44
04. Glabrous 09:27
05. Eternal Light 06:45
06. First Morning 01:50
******************************
Total playing time: 35:06




Technical info
(IMG:http://metalarea.org/images/spectrogram/2013_May/a6930a04a7261234b53678c393a44e39.png)
Input File: 03. Eve.mp3
Channels : 2
Sample Rate : 44100
Precision : 16-bit
Duration : 00:07:44.76 = 20495960 samples = 34857.1 CDDA sectors
File Size : 19.2M
Bit Rate : 330k
Sample Encoding: MPEG audio (layer I, II or III)
Comments :
Title=Eve
Artist=Trinity
Album=Trinity
Tracknumber=3
Year=2013



Register


Go to the top of the page
  Insert nick Quick quote
+Quote Post
 
Start new topic
Replies (1 - 3)
post May 24 2013, 09:55:58
Post #2

Семь Литров
*******
Group: Металариец
Posts: 727
Releases: 52
On Forums: 8 years 10 months
Thanks: 2663 time(s)
Ukraine


Облога - ад!


Thanks:
(2) Kwaad, ShmiT,
Go to the top of the page
  Insert nick Quick quote
+Quote Post
post May 24 2013, 12:58:07
Post #3

Самый Тихий Час
**************
Group: Металариец
Posts: 5,816
Releases: 0
On Forums: 10 years 3 weeks
Thanks: 2632 time(s)
Unknown


Ан-чернь?
Go to the top of the page
  Insert nick Quick quote
+Quote Post
post May 24 2013, 16:03:53
Post #4

Шесть Шесть Шесть Литров
******
Group: Металариец
Posts: 566
Releases: 0
On Forums: 9 years 7 months
Thanks: 492 time(s)
NATO


Вполне себе нормальная музыка. Ерунды не обнаружил.

ЦИТАТА(Chasm @ May 24 2013, 12:58:07) *
Ан-чернь?

Нет, исключительно природа.

Это, кстати, проект парня из Triste l'Hiver.
Go to the top of the page
  Insert nick Quick quote
+Quote Post

Reply to this topicStart new topic
2 User(s) are reading this topic (2 Guests and 0 Anonymous Users)
0 Members:

 



- Lo-Fi Version Support form
Copyrights and abuse reports form
Time is now: 7th December 2019 - 14:47:38