Welcome Guest ( Log In | Register )

> Pogavranjen - Raspored Užasa (2013), Black Metal
post May 27 2013, 18:02:06
Post #1

...
**************
Group: Металариец
Posts: 3,220
Releases: 1352
From: МЕЩЁРА
On Forums: 10 years 2 months
Thanks: 38787 time(s)
Russian Federation


(IMG:http://metalarea.org/images/audiocovers/2013_May/acov_tid201849_thumb.jpg)

*Artist: Pogavranjen
*Album: Raspored Užasa
*Year: 2013
*Genre: Black Metal
*Country: Croatia (IMG:http://metalarea.org/forum/style_images/flags/Croatia.png)
*Format: mp3@CBR320kbps
*Size: 84MB

Tracklist:
1. Stvor 04:23
2. Kostrijet 06:10
3. Od Ruku Britve 06:35
4. Odron 04:55
5. Pulsiranje 39 14:28
******************************
Total playing time: 36:31


(IMG:http://metalarea.org/images/myspace.png)

Technical info
(IMG:http://metalarea.org/images/spectrogram/2013_May/243b7a635a8096f50630c3bed733f0c4.png)
Input File: 1 Stvor.mp3
Channels : 2
Sample Rate : 44100
Precision : 16-bit
Duration : 00:04:23.16 = 11605180 samples = 19736.7 CDDA sectors
File Size : 10.7M
Bit Rate : 326k
Sample Encoding: MPEG audio (layer I, II or III)
Comments :
Title=Stvor
Artist=Pogavranjen
Album=Raspored UЕѕasa
Tracknumber=1
Year=2013



Register


Go to the top of the page
  Insert nick Quick quote
+Quote Post
 
Start new topic
Replies (1 - 6)
post May 27 2013, 19:28:48
Post #2

Satan bless you!
**************
Group: Металариец
Posts: 3,140
Releases: 63
From: Москва
On Forums: 9 years 11 months
Thanks: 2707 time(s)
Russian Federation


Legion Blotan надо качать.2009ep был хорош!
Go to the top of the page
  Insert nick Quick quote
+Quote Post
post May 28 2013, 18:14:40
Post #3

Шесть Литров
******
Group: Металариец
Posts: 618
Releases: 18
On Forums: 12 years 2 months
Thanks: 408 time(s)
Russian Federation


Bandcamp убедил. К тому же, хорваты. Интересно.
Go to the top of the page
  Insert nick Quick quote
+Quote Post
post Jun 4 2013, 17:32:36
Post #4

Аполітичний
**************
Group: Металариец
Posts: 5,103
Releases: 143
From: Тимчасово окупована територія - Юзівка
On Forums: 9 years 9 months
Thanks: 5318 time(s)
Ukraine


Интересный альбом, но ИПишка Pogavranjen - Povijest Trovanja [ep] (2012) просто бесподобна! (IMG:style_emoticons/default/true_black.gif)
Go to the top of the page
  Insert nick Quick quote
+Quote Post
post Nov 10 2015, 10:45:48
Post #5

Quaerite Lux in Tenebris
**********
Group: Металариец
Posts: 1,443
Releases: 16
From: Micsődőllő
On Forums: 7 years 11 months
Thanks: 2258 time(s)
Unknown


Линк из сети / параметры те же:
Register

Ссылка уже исправленная


Thanks:
Go to the top of the page
  Insert nick Quick quote
+Quote Post
post Feb 16 2016, 20:00:47
Post #6

Group: Подсевший
Posts: 34
Releases: 0
On Forums: 7 years 5 months
Thanks: 0 time(s)
Argentina


Please re-up this album!! thanks in advance!
Go to the top of the page
  Insert nick Quick quote
+Quote Post
post Sep 13 2017, 07:35:33
Post #7

...
Group Icon
Group: S-moderation team
Posts: 6,230
Releases: 1276
On Forums: 7 years 3 months
Thanks: 31557 time(s)
Unknown


Register


Go to the top of the page
  Insert nick Quick quote
+Quote Post

Reply to this topicStart new topic
1 User(s) are reading this topic (1 Guests and 0 Anonymous Users)
0 Members:

 



- Lo-Fi Version Support form
Copyrights and abuse reports form
Time is now: 19th June 2018 - 07:55:12