Welcome Guest ( Log In | Register )

> И неформату есть предел.

Рэп/хип-хоп/шансон/поп удаляются. Для них есть свои порталы.

> Чайф - Кино, Вино и Домино (2013), Рок
post May 27 2013, 18:16:12
Post #1

Шесть Литров
******
Group: Металариец
Posts: 506
Releases: 7
From: Kimry, Tver Region
On Forums: 12 years 9 months
Thanks: 1307 time(s)
Russian Federation


(IMG:http://metalarea.org/images/audiocovers/2013_May/acov_tid201851_thumb.jpg)

*Artist: Чайф
*Album: Кино, Вино и Домино
*Year: 2013
*Genre: Рок
*Country: Russian Federation (IMG:http://metalarea.org/forum/style_images/flags/Russian%20Federation.png)
*Format: mp3@CBR320kbps
*Size: 131MB

Tracklist:
01. Рок - мой выбор
02. Тук в самом сердце, тук
03. Поменялся
04. Точка
05. Река-море
06. Немного похоже на блюз
07. Для себя, для него, для меня
08. Почтальон
09. Зелёный пиджак
10. Дом вверх дном
11. Секрет
12. Небесный диджей
13. Нет горизонта
******************************
Total playing time: 56:25

Technical info
(IMG:http://metalarea.org/images/spectrogram/2013_May/d14ec7be08fa9349278452908fdb483d.png)
Input File: 01. Рок - мой выбор.mp3
Channels : 2
Sample Rate : 44100
Precision : 16-bit
Duration : 00:03:26.34 = 9099462 samples = 15475.3 CDDA sectors
File Size : 8.31M
Bit Rate : 322k
Sample Encoding: MPEG audio (layer I, II or III)
Comments :
Title=Рок - мой выбор
Artist=Чайф
Album=Кино, Bино и Домино
Tracknumber=1
Year=2013
Genre=Rock



Register


Go to the top of the page
  Insert nick Quick quote
+Quote Post
 
Start new topic
Replies (1 - 1)
post Nov 11 2019, 15:50:47
Post #2

Правь статус, ####!111
**************
Group: Металариец
Posts: 44,608
Releases: 688
On Forums: 10 years 6 months
Thanks: 35877 time(s)
Russian Federation


Ужасная группа (IMG:style_emoticons/default/22.gif)


Thanks:
(1) Emm Human,
Go to the top of the page
  Insert nick Quick quote
+Quote Post

Reply to this topicStart new topic
1 User(s) are reading this topic (1 Guests and 0 Anonymous Users)
0 Members:

 



- Lo-Fi Version Support form
Copyrights and abuse reports form
Time is now: 13th December 2019 - 16:28:48