Welcome Guest ( Log In | Register )

> Vomitous - Empires Of Great Enslavement [ep] (2013), Brutal Death Metal
post May 30 2013, 08:47:20
Post #1

Serial Uploader
Group Icon
Group: V.I.P
Posts: 35,861
Releases: 34042
From: Lithuania
On Forums: 11 years 2 months
Thanks: 393481 time(s)
Lithuania


(IMG:http://metalarea.org/images/audiocovers/2013_May/acov_tid202019_thumb.jpg)

*Artist: Vomitous
*Album: Empires Of Great Enslavement [ep]
*Year: 2013
*Genre: Brutal Death Metal
*Country: Sweden (IMG:http://metalarea.org/forum/style_images/flags/Sweden.png)
*Format: mp3@VBR283kbps
*Size: 31MB

Tracklist:
01. Intro - Fear Of The Unknown 00:58
02. Atrocities Of Unspeakable Magnitude 02:37
03. On The Column Of Insignificance 03:00
04. Scorched Earth Apocalypse 02:47
05. Empires Of Great Enslavement 03:19
06. Infectious Urethral Re-Leakage 02:09
******************************
Total playing time: 14:50

(IMG:http://metalarea.org/images/myspace.png)

Technical info
(IMG:http://metalarea.org/images/spectrogram/2013_Nov/5021fd5b494a679519d644b681da77c3.png)
Input File: 02-vomitous-atrocities_of_unspeakable_magnitude.mp3
Channels : 2
Sample Rate : 44100
Precision : 16-bit
Duration : 00:02:37.31 = 6937327 samples = 11798.2 CDDA sectors
File Size : 5.84M
Bit Rate : 297k
Sample Encoding: MPEG audio (layer I, II or III)
Comments :
Title=Atrocities Of Unspeakable Magnitude
Artist=Vomitous
Album=Empires Of Great Enslavement
Tracknumber=2/6
Year=2013
Genre=Death Metal



Register


This post has been edited by DarkHorde: Mar 19 2014, 13:31:38


Go to the top of the page
  Insert nick Quick quote
+Quote Post
 
Start new topic
Replies (1 - 6)
post May 30 2013, 11:31:40
Post #2

Действующий металлист
***********
Group: Металариец
Posts: 1,832
Releases: 0
From: сырой земли
On Forums: 13 years 4 hours
Thanks: 3404 time(s)
Russian Federation


Положите в большом битрейте. (IMG:style_emoticons/default/pray.gif)
Go to the top of the page
  Insert nick Quick quote
+Quote Post
post May 30 2013, 15:15:37
Post #3

Социопат.Маргинал. Мизантроп.Нигилист. Перверзный нарциссист.
**************
Group: Металариец
Posts: 5,538
Releases: 667
From: Город-герой Ленинград
On Forums: 8 years 6 months
Thanks: 6203 time(s)
Russian Federation


Замечательный коллектив!!
Go to the top of the page
  Insert nick Quick quote
+Quote Post
FalseMayanProphet
post May 31 2013, 00:50:36
Post #4

Guests team






thx for the post. it looks like a transcode tho
Go to the top of the page
  Insert nick Quick quote
+Quote Post
post Nov 21 2013, 18:46:50
Post #5

satanath@mail.ru
Group Icon
Group: Moderation team
Posts: 5,977
Releases: 645
From: Satan-Petersburg
On Forums: 8 years 9 months
Thanks: 15112 time(s)
Russian Federation


Updated links by necroscum


Thanks:
Go to the top of the page
  Insert nick Quick quote
+Quote Post
post Jan 9 2014, 12:17:03
Post #6

В чистоте и единстве:мысль-слово-дело
**************
Group: Металариец
Posts: 2,373
Releases: 9
From: Киев
On Forums: 12 years 1 month
Thanks: 1346 time(s)
Ukraine


Мясцо, скажем так качевый слэм с долей МА запилов. Классная работа. До этого слышал только ер 2010 года.
Можно уже бы и подумать о полноформатном альбоме.
Go to the top of the page
  Insert nick Quick quote
+Quote Post
post Jul 23 2019, 18:58:04
Post #7

ЗмееЛев
*******
Group: Металариец
Posts: 752
Releases: 18
On Forums: 8 years 4 months
Thanks: 1697 time(s)
Russian Federation


Интересно, у чуваков будет альбом или нет, уж очень хочется

320:
Register

Go to the top of the page
  Insert nick Quick quote
+Quote Post

Reply to this topicStart new topic
2 User(s) are reading this topic (2 Guests and 0 Anonymous Users)
0 Members:

 



- Lo-Fi Version Support form
Copyrights and abuse reports form
Time is now: 23rd August 2019 - 00:22:21