Welcome Guest ( Log In | Register )

> Torture Division - The Worship [demo] (2013), Death Metal (D)
post Jun 5 2013, 03:46:56
Post #1

Правь статус, ####!111
**************
Group: Металариец
Posts: 23,236
Releases: 16213
From: Г.Харьков
On Forums: 8 years 4 months
Thanks: 302132 time(s)
Unknown


(IMG:http://metalarea.org/images/audiocovers/2013_Jun/acov_tid202426_thumb.jpg)

*Artist: Torture Division
*Album: The Worship [demo]
*Year: 2013
*Genre: Death Metal
*Country: Sweden (IMG:http://metalarea.org/forum/style_images/flags/Sweden.png)
*Format: mp3@CBR320kbps
*Size: 23MB

Tracklist:
01.I Wanna Beat Somebody 03:46
02.All Rise 03:06
03.Hall Kaften 02:49
******************************
Total playing time: 9:41

Preview 1
(IMG:http://metalarea.org/images/myspace.png)

Technical info
(IMG:http://metalarea.org/images/spectrogram/2013_Jun/f5061c3c04a73fc0977904b9a076cee5.png)
Input File: 01 - I Wanna Beat Somebody.mp3
Channels : 2
Sample Rate : 44100
Precision : 16-bit
Duration : 00:03:45.99 = 9965939 samples = 16948.9 CDDA sectors
File Size : 9.04M
Bit Rate : 320k
Sample Encoding: MPEG audio (layer I, II or III)
Comments :
Title=I Wanna Beat Somebody
Artist=Torture Division
Album=The Worship
Tracknumber=1
Year=2013
Genre=22



Register


Go to the top of the page
  Insert nick Quick quote
+Quote Post
 
Start new topic
Replies (1 - 3)
post Jun 5 2013, 19:43:25
Post #2

Crush The Enemies
**************
Group: Металариец
Posts: 4,304
Releases: 0
From: Moscow
On Forums: 11 years 3 weeks
Thanks: 2693 time(s)
Russian Federation


Зодолбали этими демками (IMG:style_emoticons/default/25.gif) сколько уже их понавыпускали,не проще было парочку полноформатников выпустить! И вот опять та же история (IMG:style_emoticons/default/21.gif)
P.S. Но демка,как всегда,классная! (IMG:style_emoticons/default/metaler.gif) (IMG:style_emoticons/default/metaler.gif) (IMG:style_emoticons/default/metaler.gif)
Go to the top of the page
  Insert nick Quick quote
+Quote Post
post Jul 19 2019, 06:54:55
Post #3

Мегаманьяк
***********
Group: Металариец
Posts: 1,562
Releases: 34
From: -за леса,из-за гор
On Forums: 9 years 11 months
Thanks: 2046 time(s)
Russian Federation


Перезалейте, пожалуйста.
Go to the top of the page
  Insert nick Quick quote
+Quote Post
post Jul 19 2019, 07:36:28
Post #4

Социопат.Маргинал. Мизантроп.Нигилист. Перверзный нарциссист.
**************
Group: Металариец
Posts: 5,570
Releases: 667
From: Город-герой Ленинград
On Forums: 9 years 7 months
Thanks: 6446 time(s)
Russian Federation


Register


Thanks:
Go to the top of the page
  Insert nick Quick quote
+Quote Post

Reply to this topicStart new topic
1 User(s) are reading this topic (1 Guests and 0 Anonymous Users)
0 Members:

 



- Lo-Fi Version Support form
Copyrights and abuse reports form
Time is now: 25th September 2020 - 12:36:00