Welcome Guest ( Log In | Register )

> Silver Lake - Every Shape And Size (2013), Progressive Metal
post Jun 5 2013, 18:19:29
Post #1

Serial Uploader
Group Icon
Group: V.I.P
Posts: 37,112
Releases: 35296
From: Lithuania
On Forums: 11 years 9 months
Thanks: 418047 time(s)
Lithuania


(IMG:http://metalarea.org/images/audiocovers/2013_Jun/acov_tid202480_thumb.jpg)

*Artist: Silver Lake
*Album: Every Shape And Size
*Year: 2013
*Genre: Progressive Metal
*Country: Italy (IMG:http://metalarea.org/forum/style_images/flags/Italy.png)
*Format: mp3@CBR320kbps
*Size: 104MB

Tracklist:
01. Invisibile To The Eye 04:46
02. Hold Me Close 04:30
03. Shaping The Scarlet Flame 04:26
04. Guardian Demon 05:08
05. The Illusion 03:45
06. Basic 04:59
07. 58 05:06
08. Escaping From This Town 05:18
09. Nowhere At All 05:10
10. Dorian 04:19
******************************
Total playing time: 47:27

(IMG:http://metalarea.org/images/myspace.png)

Technical info
(IMG:http://metalarea.org/images/spectrogram/2013_Jun/102486c1fe139d414d9e252458544330.png)
Input File: 02. Hold Me Close.mp3
Channels : 2
Sample Rate : 44100
Precision : 16-bit
Duration : 00:04:30.32 = 11920980 samples = 20273.8 CDDA sectors
File Size : 10.8M
Bit Rate : 320k
Sample Encoding: MPEG audio (layer I, II or III)
Comments :
Title=Hold Me Close
Artist=Silver Lake
Album=Every Shape and Size
Tracknumber=2
Year=2013
Genre=Progressive Metal



Register


Go to the top of the page
  Insert nick Quick quote
+Quote Post
 
Start new topic
Replies (1 - 4)
post Jun 6 2013, 04:17:05
Post #2

Девять Литров
*********
Group: Металариец
Posts: 931
Releases: 348
From: Украина
On Forums: 12 years 2 months
Thanks: 2570 time(s)
Ukraine


классический не плохой прогрессив,как и первый альбом выдержан в итальянском стиле,с мелодиями и без жесткости.


Thanks:
(1) Yarri,
Go to the top of the page
  Insert nick Quick quote
+Quote Post
post Jun 6 2013, 17:57:10
Post #3

brutalcesar
**************
Group: Металариец
Posts: 17,889
Releases: 67
From: Рязань
On Forums: 11 years 2 months
Thanks: 9626 time(s)
Russian Federation


Вчера скачал первый попавшийся прог из новых релизов.
Сегодня утром в машине послушал.

Нормально. Обычно. Мягко.
Я один раз вполне доволен прослушиванием, но явно не запомнится.
Go to the top of the page
  Insert nick Quick quote
+Quote Post
post Jun 6 2013, 18:36:51
Post #4

Правь статус, ####!111
**************
Group: Металариец
Posts: 2,090
Releases: 0
From: Мытищи
On Forums: 12 years 2 weeks
Thanks: 1228 time(s)
Russian Federation


Попробовать надо, превью неплохо, и как мне кажется все-таки зашло чуть дальше классичекого итало-прога
С другой стороны и самого прога немного) Но вполне себе мелодично, для любителей безе, зефира и пастилы (IMG:style_emoticons/default/smile1.gif)


Thanks:
(1) cesar,
Go to the top of the page
  Insert nick Quick quote
+Quote Post
post Jun 7 2013, 19:54:53
Post #5

brutalcesar
**************
Group: Металариец
Posts: 17,889
Releases: 67
From: Рязань
On Forums: 11 years 2 months
Thanks: 9626 time(s)
Russian Federation


ЦИТАТА(Mplast @ Jun 6 2013, 21:36:51) *
...для любителей безе, зефира и пастилы (IMG:style_emoticons/default/smile1.gif)

Точно!!
Go to the top of the page
  Insert nick Quick quote
+Quote Post

Reply to this topicStart new topic
2 User(s) are reading this topic (2 Guests and 0 Anonymous Users)
0 Members:

 



- Lo-Fi Version Support form
Copyrights and abuse reports form
Time is now: 30th March 2020 - 13:06:42