Welcome Guest ( Log In | Register )

> Assaultery - Life Denied (2013), Blackened Thrash Metal
post Jul 5 2013, 16:33:03
Post #1

Правь статус, ####!111
**************
Group: Металариец
Posts: 25,235
Releases: 17983
From: Г.Харьков
On Forums: 8 years 9 months
Thanks: 352252 time(s)
Unknown


(IMG:http://metalarea.org/images/audiocovers/2013_Jul/acov_tid204233_thumb.jpg)

*Artist: Assaultery
*Album: Life Denied
*Year: 2013
*Genre: Blackened Thrash Metal
*Country: Sweden (IMG:http://metalarea.org/forum/style_images/flags/Sweden.png)
*Format: mp3@CBR320kbps
*Size: 68MB

Tracklist:
01.Alien Force 03:12
02.Ancient Rites 04:00
03.March of The Damned 05:19
04.Shadows 04:30
05.Between Worlds 04:49
06.Deal In Lead 03:22
07.Cold Steel 02:39
08.The Executioner 02:49
******************************
Total playing time: 30:40

Preview 1
(IMG:http://metalarea.org/images/myspace.png)

Extended info
Наконец то они записали полноформатник


Technical info
(IMG:http://metalarea.org/images/spectrogram/2013_Jul/6f518df57bb9300df493f3f25d8917b3.png)
Input File: 03 - March of the Damned.mp3
Channels : 2
Sample Rate : 44100
Precision : 16-bit
Duration : 00:05:17.81 = 14015333 samples = 23835.6 CDDA sectors
File Size : 12.7M
Bit Rate : 320k
Sample Encoding: MPEG audio (layer I, II or III)
Comments :
Title=March of the Damned
Artist=Assaultery
Album=Life Denied
Tracknumber=3
Year=2013
Genre=Blackened Thrash Metal



Register


Go to the top of the page
  Insert nick Quick quote
+Quote Post
 
Start new topic
Replies (1 - 1)
post Nov 22 2020, 13:58:18
Post #2

Old School Metal
**************
Group: Металариец
Posts: 3,502
Releases: 0
From: г. Минск
On Forums: 11 years 11 months
Thanks: 8049 time(s)
Belarus


Format: mp3@320kbps
Register


Thanks:
Go to the top of the page
  Insert nick Quick quote
+Quote Post

Reply to this topicStart new topic
1 User(s) are reading this topic (1 Guests and 0 Anonymous Users)
0 Members:

 



- Lo-Fi Version Support form
Copyrights and abuse reports form
Time is now: 8th March 2021 - 03:59:58