Welcome Guest ( Log In | Register )

> Swamp Lung - Swamp Lung (2013), Sludge/Doom Metal
post Jul 9 2013, 06:37:53
Post #1

Аннигилятор пивА
Group Icon
Group: V.I.P
Posts: 52,358
Releases: 16557
From: Koenigsberg - TILZIT
On Forums: 13 years 3 months
Thanks: 362280 time(s)
Russian Federation


(IMG:http://metalarea.org/images/audiocovers/2013_Jul/acov_tid204404_thumb.jpg)

*Artist: Swamp Lung
*Album: Swamp Lung
*Year: 2013
*Genre: Sludge/Doom Metal
*Country: Australia (IMG:http://metalarea.org/forum/style_images/flags/Australia.png)
*Format: mp3@CBR320kbps
*Size: 84MB

Tracklist:
1. Infant Thought 13:32
2. Constant Reinforcement 09:54
3. Starspawn 10:01
4. Blood Harvest 01:33
******************************
Total playing time: 35:00



Technical info
(IMG:http://metalarea.org/images/spectrogram/2013_Jul/a83ac4b5ad1175a61463196fa5d61dac.png)
Input File: 02 Constant Reinforcement.mp3
Channels : 2
Sample Rate : 44100
Precision : 16-bit
Duration : 00:09:54.40 = 26212864 samples = 44579.7 CDDA sectors
File Size : 23.9M
Bit Rate : 321k
Sample Encoding: MPEG audio (layer I, II or III)
Comments :
Title=Constant Reinforcement
Artist=Swamp Lung
Album=Swamp Lung
Tracknumber=2
Year=2013



Register


Go to the top of the page
  Insert nick Quick quote
+Quote Post
 
Start new topic
Replies (1 - 4)
post Jul 9 2013, 09:33:57
Post #2

Аннигилятор пивА
Group Icon
Group: V.I.P
Posts: 52,358
Releases: 16557
From: Koenigsberg - TILZIT
On Forums: 13 years 3 months
Thanks: 362280 time(s)
Russian Federation


"расплющивает, как должно размазывать"©
Жыырнющщий Жыыррр (IMG:style_emoticons/default/THIS_IS_SPARTA_v2_0_by_DoooM.gif) эта каторый на гусеницах танка от человеческих тел остается и перекручивается в траках с жилами (IMG:style_emoticons/default/crazy.gif)


Thanks:
Go to the top of the page
  Insert nick Quick quote
+Quote Post
post Jul 9 2013, 10:17:36
Post #3

Три Литра
***
Group: Завсегдатай
Posts: 272
Releases: 1
From: Moscow
On Forums: 7 years 3 months
Thanks: 68 time(s)
Russian Federation


Мощное и беспощадное музло! Звук то какой, как будто кишки вместо струн)


Thanks:
Go to the top of the page
  Insert nick Quick quote
+Quote Post
post Jul 11 2013, 07:25:27
Post #4

Аннигилятор пивА
Group Icon
Group: V.I.P
Posts: 52,358
Releases: 16557
From: Koenigsberg - TILZIT
On Forums: 13 years 3 months
Thanks: 362280 time(s)
Russian Federation


ЦИТАТА(terrano2006 @ Jul 9 2013, 09:17:36) *
Мощное и беспощадное музло! Звук то какой, как будто кишки вместо струн)

басиле за звук можно премию выписать, чугун!


Thanks:
Go to the top of the page
  Insert nick Quick quote
+Quote Post
post Jul 15 2013, 02:11:28
Post #5
BAN
Banned till
Oct 7 2019, 23:44:15



Да ну. Не плющит и не таращит, все обычно-обыденно. Ни жесткости, ни жестокости, ни психоделии.
Go to the top of the page
  Insert nick Quick quote
+Quote Post

Reply to this topicStart new topic
2 User(s) are reading this topic (2 Guests and 0 Anonymous Users)
0 Members:

 



- Lo-Fi Version Support form
Copyrights and abuse reports form
Time is now: 20th September 2019 - 17:08:15