Welcome Guest ( Log In | Register )

> Hell Patrol - Chariots Of Oblivon [demo] (2012), Black/Thrash Metal
post Jul 12 2013, 17:10:59
Post #1

Правь статус, ####!111
**************
Group: Металариец
Posts: 14,280
Releases: 9902
From: Г.Харьков
On Forums: 6 years 4 months
Thanks: 162493 time(s)
Unknown


(IMG:http://metalarea.org/images/audiocovers/2013_Jul/acov_tid204595_thumb.jpg)

*Artist: Hell Patrol
*Album: Chariots Of Oblivon [demo]
*Year: 2012
*Genre: Black/Thrash Metal
*Country: Poland (IMG:http://metalarea.org/forum/style_images/flags/Poland.png)
*Format: mp3@CBR320kbps
*Size: 26MB

Tracklist:
01.Chariots Of Oblivion 04:11
02.Obedience 03:26
03.Satanic Storm 04:11
******************************
Total playing time: 11:48


(IMG:http://metalarea.org/images/myspace.png)

Extended info


Technical info
(IMG:http://metalarea.org/images/spectrogram/2013_Jul/6fd0cbc4c8d6e359a46ade693ddc60ad.png)
Input File: 02 - Obedience.mp3
Channels : 2
Sample Rate : 44100
Precision : 16-bit
Duration : 00:03:26.31 = 9098447 samples = 15473.5 CDDA sectors
File Size : 8.25M
Bit Rate : 320k
Sample Encoding: MPEG audio (layer I, II or III)
Comments :
Title=Obedience
Artist=Hell Patrol
Album=Chariots of Oblivion
Tracknumber=2
Year=2012
Genre=Black/Thrash Metal



Register


Go to the top of the page
  Insert nick Quick quote
+Quote Post
 
Start new topic
Replies (1 - 3)
post Jul 13 2013, 07:05:39
Post #2

_ - = # Thrashogolic # = - _ ... а давайте поржём все вместе
**************
Group: Металариец
Posts: 20,959
Releases: 4444
From: 404
On Forums: 8 years 3 months
Thanks: 27134 time(s)
Ukraine


early them Hell Patrol - The Beginning [demo] (2010)
Go to the top of the page
  Insert nick Quick quote
+Quote Post
post Mar 12 2018, 00:04:03
Post #3

Четыре Литра
****
Group: Металариец
Posts: 392
Releases: 0
On Forums: 3 years 9 months
Thanks: 59 time(s)
Poland


Please re-up
Go to the top of the page
  Insert nick Quick quote
+Quote Post
post Mar 13 2018, 01:33:08
Post #4

Going home. Flying high.
**************
Group: Металариец
Posts: 12,275
Releases: 0
From: The Land of Shadows
On Forums: 12 years 1 month
Thanks: 17490 time(s)
Russian Federation


from web
Register


Thanks:
(1) Slavas,
Go to the top of the page
  Insert nick Quick quote
+Quote Post

Reply to this topicStart new topic
1 User(s) are reading this topic (1 Guests and 0 Anonymous Users)
0 Members:

 



- Lo-Fi Version Support form
Copyrights and abuse reports form
Time is now: 21st September 2018 - 02:47:32