Welcome Guest ( Log In | Register )

> Темнозорь - Ведовством Крепка Чёрная Слава Руси (1998), Folk/Pagan Black Metal (D)
post Jul 19 2013, 18:36:55
Post #1

...
**************
Group: Металариец
Posts: 3,353
Releases: 1425
From: МЕЩЁРА
On Forums: 11 years 6 months
Thanks: 40635 time(s)
Russian Federation


(IMG:http://metalarea.org/images/audiocovers/2013_Jul/acov_tid205008_thumb.jpg)

*Artist: Темнозорь
*Album: Ведовством Крепка Чёрная Слава Руси
*Year: 1998
*Genre: Folk/Pagan Black Metal
*Country: Russian Federation (IMG:http://metalarea.org/forum/style_images/flags/Russian%20Federation.png)
*Format: mp3@CBR320kbps
*Size: 85MB

Tracklist:
1. Ведовством Крепка Черная Слава Руси 02:29
2. Бъ Одън Народ Словънск 05:19
3. Дид-Дуб-Сноп 05:05
4. Зимние Грезы 01:33
5. Масленица 02:00
6. Прославление Павших 03:05
7. Князь Священного Безмолвия 04:12
8. ...В Кронах Вековых Дубов Ветер Тихо Плачет... 05:47
9. У Талых Снегов Спроси Наши Имена 07:51
******************************
Total playing time: 37:21

Extended info
(Remastered 2013)

vk.com
"Впоследствии, проект был приостановлен музыкантами группы на неопределённый срок. Название группы МЫ никому не передавали.
И ОНО ОСТАЁТСЯ ЗА НАМИ ПО СЕЙ ДЕНЬ!
А теперь о Добрых вестях:
Хотим обрадовать наших ценителей, что группа Темнозорь (Обнинск), в лице Вулко и Лешего начинает заново свой творческий путь. Мы пригласили новых участников и в ближайшее время обновлённый состав начнёт репетиции для записи нового материала."


Technical info
(IMG:http://metalarea.org/images/spectrogram/2013_Jul/a0715540f7abefeeb39c9708cc394f1f.png)
Input File: 3. Дид-Дуб-Сноп.mp3
Channels : 2
Sample Rate : 44100
Precision : 16-bit
Duration : 00:05:05.30 = 13463510 samples = 22897.1 CDDA sectors
File Size : 12.2M
Bit Rate : 320k
Sample Encoding: MPEG audio (layer I, II or III)
Comments :
Title=Дид-дуб-сноп
Artist=Темнозорь
Album=Ведовством Крепка Чёрная Слава Руси
Tracknumber=3
Year=2103
Genre=Pagan-Metal



Register


This post has been edited by satanath: Jul 19 2013, 19:41:58


Go to the top of the page
  Insert nick Quick quote
+Quote Post
4 Pages V  « < 2 3 4  
Start new topic
Replies (90 - 95)
post Jan 30 2014, 17:49:51
Post #91

Правь статус, ####!111
**************
Group: Металариец
Posts: 2,976
Releases: 423
On Forums: 11 years 10 months
Thanks: 13884 time(s)
Germany


320 kbps
Register
Go to the top of the page
  Insert nick Quick quote
+Quote Post
post Aug 15 2014, 16:44:51
Post #92

...
**************
Group: Металариец
Posts: 3,353
Releases: 1425
From: МЕЩЁРА
On Forums: 11 years 6 months
Thanks: 40635 time(s)
Russian Federation


CD-Rip. (Volkh (2014) - remastered + bonus)
mp3@CBR320kbps (95Mb)
Register


Go to the top of the page
  Insert nick Quick quote
+Quote Post
post Jul 20 2015, 15:05:23
Post #93

Group: Подсевший
Posts: 25
Releases: 2
On Forums: 5 years 8 months
Thanks: 26 time(s)
Ukraine


Может кто-нибудь сканы кассеты сделать? Только именно сканы, а не фото.
Go to the top of the page
  Insert nick Quick quote
+Quote Post
post Jan 5 2017, 13:55:59
Post #94

Мегаманьяк
***********
Group: Металариец
Posts: 1,780
Releases: 0
On Forums: 6 years 11 months
Thanks: 2585 time(s)
Russian Federation


Альтернативная ссылка
Register


Go to the top of the page
  Insert nick Quick quote
+Quote Post
post Jun 1 2019, 12:51:50
Post #95

Два Литра
**
Group: Завсегдатай
Posts: 111
Releases: 50
On Forums: 11 years 10 months
Thanks: 1209 time(s)
Czech Republic


Может кто-нибудь сканы кассеты сделать? Только именно сканы, а не фото.
Go to the top of the page
  Insert nick Quick quote
+Quote Post
post Jun 1 2019, 21:06:50
Post #96

...
**************
Group: Металариец
Posts: 3,353
Releases: 1425
From: МЕЩЁРА
On Forums: 11 years 6 months
Thanks: 40635 time(s)
Russian Federation


Register



Thanks:
Go to the top of the page
  Insert nick Quick quote
+Quote Post

4 Pages V  « < 2 3 4
Reply to this topicStart new topic
2 User(s) are reading this topic (2 Guests and 0 Anonymous Users)
0 Members:

 



- Lo-Fi Version Support form
Copyrights and abuse reports form
Time is now: 20th October 2019 - 22:28:07