Welcome Guest ( Log In | Register )

> Forum rules / Правила раздела

Here go releases which can't go to New releases forums due lack of information, stolen links or incorrect data and just founded in other sites links with minimum info. Reissue of this releases through Add release form with added/corrected data, info and own links highly welcomed.

Сюда уходят релизы, не пропущенные в основные релизные форумы по причинам отсутствия, недостаточности или неверности/некорректности сопровождающей информации, содержащие ссылки, указывающие на файлы, залитые не автором темы, а так же просто найденные где-то ссылки с минимумом информации. Переоформление тем отсюда через форму Добавления релиза с перезаливкой ссылок крайне приветствуется.

> Enslaved - Promo 1994 [demo] (1994), Viking/Black Metal (D)
post Jul 24 2013, 12:21:36
Post #1

Четыре Литра
****
Group: Металариец
Posts: 321
Releases: 14
From: bilskirnir
On Forums: 10 years 4 months
Thanks: 296 time(s)
Austria


(IMG:http://metalarea.org/images/audiocovers/nocover.gif)

*Artist: Enslaved
*Album: Promo 1994 [demo]
*Year: 1994
*Genre: Viking/Black Metal
*Country: Norway (IMG:http://metalarea.org/forum/style_images/flags/Norway.png)
*Format: mp3@CBR320kbps
*Size: 51MB

Tracklist:
1. Svarte vidder - 08:28
2. Wotan - 04:36
3. Gylfaginning - 05:18
4. Jotunblod - 04:10
******************************
Total playing time: 22:32

Extended info
Unmixed versions of the Frost tracks, without keyboards.


Technical info
(IMG:http://metalarea.org/images/spectrogram/2013_Jul/9becc282a6ab8ef0e865e10ce0dbceb3.png)
Input File: enslaved_-_4_jotunblod_(demo).mp3
Channels : 2
Sample Rate : 44100
Precision : 16-bit
Duration : 00:04:09.00 = 10980812 samples = 18674.9 CDDA sectors
File Size : 9.96M
Bit Rate : 320k
Sample Encoding: MPEG audio (layer I, II or III)
Comments :
Title=Jotunblod
Artist=Enslaved
Album=Promo
Year=1994
Genre=Metal



Register


Go to the top of the page
  Insert nick Quick quote
+Quote Post
 
Start new topic
Replies (1 - 7)
post Nov 17 2018, 06:52:25
Post #2

Семь Литров
*******
Group: Металариец
Posts: 775
Releases: 0
On Forums: 2 years 7 months
Thanks: 72 time(s)
Unknown


Please re-upload.


Thanks:
(1) Occultas,
Go to the top of the page
  Insert nick Quick quote
+Quote Post
post Nov 18 2018, 21:36:21
Post #3

Мегаманьяк
***********
Group: Металариец
Posts: 1,948
Releases: 36
On Forums: 1 year 7 months
Thanks: 4182 time(s)
Unknown


вот это интересно что?
Go to the top of the page
  Insert nick Quick quote
+Quote Post
post Dec 10 2018, 17:07:10
Post #4

Шесть Литров
******
Group: Металариец
Posts: 528
Releases: 15
From: Самара
On Forums: 10 years 10 months
Thanks: 829 time(s)
Russian Federation


Register


Go to the top of the page
  Insert nick Quick quote
+Quote Post
post Dec 10 2018, 17:47:03
Post #5

Мегаманьяк
***********
Group: Металариец
Posts: 1,948
Releases: 36
On Forums: 1 year 7 months
Thanks: 4182 time(s)
Unknown


У меня есть dvd "Live Retaliation" (CD-maximum) так вот треки эти как раз таки из его аудио раздела. Как я и предполагал. А за перезалив спасибо.


Thanks:
(1) Occultas,
Go to the top of the page
  Insert nick Quick quote
+Quote Post
post Dec 10 2018, 18:32:03
Post #6

Black Metal Terrorist
*********
Group: Металариец
Posts: 900
Releases: 1
On Forums: 6 years 3 months
Thanks: 386 time(s)
Russian Federation


а у меня есть промо дэмо 1991 года........ на кассете)))
Go to the top of the page
  Insert nick Quick quote
+Quote Post
post Dec 10 2018, 21:26:55
Post #7

Мегаманьяк
***********
Group: Металариец
Posts: 1,948
Releases: 36
On Forums: 1 year 7 months
Thanks: 4182 time(s)
Unknown


а 91 то причём здесь?
Go to the top of the page
  Insert nick Quick quote
+Quote Post
post Dec 10 2018, 21:36:38
Post #8

Black Metal Terrorist
*********
Group: Металариец
Posts: 900
Releases: 1
On Forums: 6 years 3 months
Thanks: 386 time(s)
Russian Federation


ЦИТАТА(INDARKNESS @ Dec 11 2018, 01:26:55) *
а 91 то причём здесь?

дерзко хвастанул (IMG:style_emoticons/default/crazy.gif) (IMG:style_emoticons/default/1488.gif)
Go to the top of the page
  Insert nick Quick quote
+Quote Post

Reply to this topicStart new topic
1 User(s) are reading this topic (1 Guests and 0 Anonymous Users)
0 Members:

 



- Lo-Fi Version Support form
Copyrights and abuse reports form
Time is now: 18th June 2019 - 15:39:42