Welcome Guest ( Log In | Register )

> Правила / Rules

Тут только для чтения лежат низкобитрейтные (<192kbps) релизы, для которых есть аналоги в высокобитрейтных форумах.

Here goes (and stand in read only mode) low bitrate releases (<192kbps) which were already replaced by high bitrate releases in corresponding forums.

> Moonreich - Terribilis Est Locust Iste (2013), Black Metal
post Jul 26 2013, 02:55:20
Post #1

Правь статус, ####!111
**************
Group: Металариец
Posts: 21,176
Releases: 14459
From: Г.Харьков
On Forums: 7 years 10 months
Thanks: 257815 time(s)
Unknown


(IMG:http://metalarea.org/images/audiocovers/2013_Jul/acov_tid205313_thumb.jpg)

*Artist: Moonreich
*Album: Terribilis Est Locust Iste
*Year: 2013
*Genre: Black Metal
*Country: France (IMG:http://metalarea.org/forum/style_images/flags/France.png)
*Format: mp3@CBR320kbps
*Size: 132MB

Tracklist:
01.Terribilis Est Locust Iste 08:33
02.Bright Morning Star 07:19
03.Oppressive Light 02:57
04.Chant For A Darkened Gospel 03:57
05.The Serpent Presaging Sinister 04:43
06.Cursed The Day,Hailed The Night 06:20
07.Nos Conspuere In Vobis 05:01
08.Hidden Mystical World 09:57
09.And A Star Fell At The Fifth Sound 09:19
******************************
Total playing time: 58:06

Preview 1
(IMG:http://metalarea.org/images/myspace.png)

Extended info
В ЛОУ


Technical info
(IMG:http://metalarea.org/images/spectrogram/2013_Jul/c2a752c62da5f8feb5f56758a904956a.png)
Input File: 01-moonreich-terribilis_est_locus_iste.mp3
Channels : 2
Sample Rate : 44100
Precision : 16-bit
Duration : 00:08:33.80 = 22658492 samples = 38534.9 CDDA sectors
File Size : 20.6M
Bit Rate : 320k
Sample Encoding: MPEG audio (layer I, II or III)
Comments :
Title=Terribilis Est Locus Iste
Artist=Moonreich
Album=Terribilis Est Locus Iste
Tracknumber=1
Year=2013
Genre=Black Metal



Register


Go to the top of the page
  Insert nick Quick quote
+Quote Post
 
Start new topic
Replies (1 - 2)
post Jul 26 2013, 10:52:36
Post #2

Два Литра
**
Group: Завсегдатай
Posts: 145
Releases: 0
On Forums: 12 years 11 months
Thanks: 19 time(s)
Russian Federation


1000

(IMG:style_emoticons/default/pray.gif)

!
Go to the top of the page
  Insert nick Quick quote
+Quote Post
post Jul 26 2013, 11:06:00
Post #3

I hate you all
**************
Group: Металариец
Posts: 2,204
Releases: 76
From: Ukraine
On Forums: 12 years 10 months
Thanks: 5581 time(s)
Ukraine




Go to the top of the page
  Insert nick Quick quote
+Quote Post

Причина закрытия (Хогги 26-07-2013):
Closed TopicStart new topic
1 User(s) are reading this topic (1 Guests and 0 Anonymous Users)
0 Members:

 



- Lo-Fi Version Support form
Copyrights and abuse reports form
Time is now: 30th March 2020 - 02:26:22