Welcome Guest ( Log In | Register )

> Silent Dominion - Invoking The Worldly Gods [demo] (2013), Pagan Black Metal (D5)
post Aug 13 2013, 09:25:10
Post #1

Правь статус, ####!111
**************
Group: Металариец
Posts: 2,277
Releases: 1014
From: Гиперборе́я
On Forums: 8 years 2 months
Thanks: 21451 time(s)
Russian Federation


(IMG:http://metalarea.org/images/audiocovers/2013_Aug/acov_tid206313_thumb.jpg)

*Artist: Silent Dominion
*Album: Invoking The Worldly Gods [demo]
*Year: 2013
*Genre: Pagan Black Metal
*Country: Greece (IMG:http://metalarea.org/forum/style_images/flags/Greece.png)
*Format: mp3@CBR320kbps
*Size: 25MB

Tracklist:
01. The Greatest Moment 04:37
02. Invoking The Worldly Gods 04:48
03. Swamp Of Calmness 02:58
******************************
Total playing time: 12:23

(IMG:http://metalarea.org/images/myspace.png)


Technical info
(IMG:http://metalarea.org/images/spectrogram/2013_Aug/7f7be059b52ee32039bafe9559631d4f.png)
Input File: 02 - Invoking The Worldly Gods.mp3
Channels : 2
Sample Rate : 44100
Precision : 16-bit
Duration : 00:04:48.06 = 12703226 samples = 21604.1 CDDA sectors
File Size : 11.5M
Bit Rate : 320k
Sample Encoding: MPEG audio (layer I, II or III)
Comments :
Title=Invoking The Worldly Gods
Artist=Silent Dominion
Album=Invoking The Worldly Gods (Demo)
Tracknumber=02/03
Year=2013
Genre=Pagan Black Metal



Register


Go to the top of the page
  Insert nick Quick quote
+Quote Post
 
Start new topic
Replies (1 - 2)
post Aug 13 2013, 15:36:07
Post #2

..ще до загибелі
**********
Group: Металариец
Posts: 1,156
Releases: 0
From: Мати Руських Міст
On Forums: 7 years 10 months
Thanks: 901 time(s)
Ukraine


последний акустический трек порадовал. Приятно, когда у банды действительно получается озвучить безветренный дождь, а не высцыкивающего пивко мужичка.


Go to the top of the page
  Insert nick Quick quote
+Quote Post
post Jan 12 2019, 08:09:54
Post #3

Ich bin die Trauer menschlich, kommen Sie zu mir und ich werde Ihnen vergelten
**************
Group: Металариец
Posts: 3,983
Releases: 692
From: Koenigsberg
On Forums: 11 years 2 weeks
Thanks: 10067 time(s)
Russian Federation


Register



Thanks:
Go to the top of the page
  Insert nick Quick quote
+Quote Post

Reply to this topicStart new topic
2 User(s) are reading this topic (2 Guests and 0 Anonymous Users)
0 Members:

 



- Lo-Fi Version Support form
Copyrights and abuse reports form
Time is now: 22nd January 2019 - 22:08:35