Welcome Guest ( Log In | Register )

> Not Fragile - Shout To The Master (2013), Speed Metal (D)
post Aug 15 2013, 12:39:24
Post #1

Аннигилятор пивА
Group Icon
Group: V.I.P
Posts: 45,779
Releases: 13668
From: Koenigsberg - TILZIT
On Forums: 11 years 8 months
Thanks: 302448 time(s)
Russian Federation


(IMG:http://metalarea.org/images/audiocovers/2013_Aug/acov_tid206452_thumb.jpg)

*Artist: Not Fragile
*Album: Shout To The Master
*Year: 2013
*Genre: Speed Metal
*Country: Germany (IMG:http://metalarea.org/forum/style_images/flags/Germany.png)
*Format: mp3@CBR320kbps
*Size: 92MB

Tracklist:
01. Years On The Run
02. Shout To The Master
03. Lost Behind The Stars
04. Unleashed The Dragon
05. Thunderbolt Man
06. I Don't Want Lie 4 You
07. Human Revolution
08. Ready To Sacrifice
09. Princess Of The Kingdom
10. Into The Madhouse
11. Zombie Dance
12. Stand Up And Fight (Exciter Cover)
******************************
Total playing time: 44:10



Extended info
The German cult Speed-Metal Band since 1980 returns with a new CD.


Technical info
(IMG:http://metalarea.org/images/spectrogram/2013_Aug/27489311cc84a196aea4a640b243edbd.png)
Input File: 02 Shout To The Master.mp3
Channels : 2
Sample Rate : 44100
Precision : 16-bit
Duration : 00:04:36.39 = 12188623 samples = 20729 CDDA sectors
File Size : 11.0M
Bit Rate : 320k
Sample Encoding: MPEG audio (layer I, II or III)
Comments :
Title=Shout To The Master
Artist=Not Fragile
Album=Shout To The Master
Tracknumber=2
Year=2013



Register


Вернуться к началу страницы
  Insert nick Quick quote
+Цитировать сообщение
 
Создать новую тему
Replies (1 - 7)
post Aug 15 2013, 13:51:43
Post #2

21st Century Schizoid Man
**************
Group: Металариец
Posts: 4,862
Releases: 66
From: Moscow
On Forums: 9 years 9 months
Thanks: 3861 time(s)
Russian Federation


Ни фига себе! Очухались ветераны! Качаю не задумываясь.
Вернуться к началу страницы
  Insert nick Quick quote
+Цитировать сообщение
post Aug 15 2013, 15:57:46
Post #3

Thrash, Beer & Violence
**************
Group: Металариец
Posts: 5,503
Releases: 2772
From: Крестов Брод (Russland)
On Forums: 10 years 4 months
Thanks: 39523 time(s)
Russian Federation


Да-да. Этих перцев надо обязательно заслушать. (IMG:style_emoticons/default/dooo.gif)
Вернуться к началу страницы
  Insert nick Quick quote
+Цитировать сообщение
post Aug 15 2013, 18:40:00
Post #4

_ - = # Thrashogolic # = - _ ... а давайте поржём все вместе
**************
Group: Металариец
Posts: 20,598
Releases: 4444
From: 404
On Forums: 7 years 8 months
Thanks: 26779 time(s)
Ukraine


ЦИТАТА(metadeat @ 15th August 2013 - 17:57:46) *
Да-да. Этих перцев надо обязательно заслушать.
Иначе что? - какие санкции?
Вернуться к началу страницы
  Insert nick Quick quote
+Цитировать сообщение
post Aug 15 2013, 18:55:42
Post #5

South Of Heaven /адепт ВУДУ
**************
Group: Металариец
Posts: 11,910
Releases: 7
From: Санкт-Петербург
On Forums: 7 years 10 months
Thanks: 4244 time(s)
Russian Federation


ЦИТАТА(TheThrasher @ Aug 15 2013, 21:40:00) *
Иначе что? - какие санкции?

Лучше не рискуй - могут в гугле забанить (IMG:style_emoticons/default/fear.gif)
А я вот скачал, послушаю, надеюсь на что-нибудь интересное.


Thanks:
Вернуться к началу страницы
  Insert nick Quick quote
+Цитировать сообщение
post Aug 17 2013, 23:03:22
Post #6

No More Tears
**************
Group: Металариец
Posts: 4,904
Releases: 114
From: Тбилиси, Грузия
On Forums: 11 years 7 months
Thanks: 2304 time(s)
Georgia


Опаа на...
Эта была отличнейшая команда!
Даже не знал, что у них новинка должна сейчас появится
Отличная просто новость.
Вернуться к началу страницы
  Insert nick Quick quote
+Цитировать сообщение
post Oct 10 2017, 15:29:27
Post #7

Литр
*
Group: Подсевший
Posts: 94
Releases: 0
On Forums: 9 years 2 months
Thanks: 0 time(s)
Russian Federation


any chance anyone got this for a re-up?
Вернуться к началу страницы
  Insert nick Quick quote
+Цитировать сообщение
post Oct 12 2017, 16:35:31
Post #8

Going home. Flying high.
**************
Group: Металариец
Posts: 11,961
Releases: 0
From: The Land of Shadows
On Forums: 11 years 6 months
Thanks: 15727 time(s)
Russian Federation


from the web
Register

or
Register
Вернуться к началу страницы
  Insert nick Quick quote
+Цитировать сообщение

ОтветитьСоздать новую тему
2 User(s) are reading this topic (2 Guests and 0 Anonymous Users)
0 Members:

 



- Lo-Fi Version Support form
Copyrights and abuse reports form
Time is now: 23rd February 2018 - 21:14:52