Welcome Guest ( Log In | Register )

> Правила / Rules

Тут только для чтения лежат низкобитрейтные (<192kbps) релизы, для которых есть аналоги в высокобитрейтных форумах.

Here goes (and stand in read only mode) low bitrate releases (<192kbps) which were already replaced by high bitrate releases in corresponding forums.

> Nebula Orionis - Aena [ep] (2013), Atmospheric Black Metal/Ambient
post Aug 24 2013, 15:04:01
Post #1

Девять Литров
*********
Group: Металариец
Posts: 991
Releases: 91
On Forums: 9 years 1 month
Thanks: 2256 time(s)
Unknown


(IMG:http://metalarea.org/images/audiocovers/2013_Aug/acov_tid207035_thumb.JPG)

*Artist: Nebula Orionis
*Album: Aena [ep]
*Year: 2013
*Genre: Atmospheric Black Metal/Ambient
*Country: Russian Federation (IMG:http://metalarea.org/forum/style_images/flags/Russian%20Federation.png)
*Format: mp3@CBR320kbps
*Size: 31MB

Tracklist:
1. Aena 03:58
2. Autumn Night Sky 05:24
3. Farewell Scream 05:48
******************************
Total playing time: 15:10

VK

Technical info
(IMG:http://metalarea.org/images/spectrogram/2013_Aug/623d310d67d9f2d7f88c473b881952e8.png)
Input File: Autumn Night Sky.mp3
Channels : 2
Sample Rate : 44100
Precision : 16-bit
Duration : 00:00:09.95 = 438927 samples = 746.474 CDDA sectors
File Size : 398k
Bit Rate : 320k
Sample Encoding: MPEG audio (layer I, II or III)
Comments :
Title=Autumn Night Sky
Album=Aena
Tracknumber=2
Year=2013-00-00



Register


Go to the top of the page
  Insert nick Quick quote
+Quote Post
 
Start new topic
Replies (1 - 4)
post Aug 24 2013, 18:30:38
Post #2

Девять Литров
*********
Group: Металариец
Posts: 991
Releases: 91
On Forums: 9 years 1 month
Thanks: 2256 time(s)
Unknown


опять в лоубитрейт (IMG:style_emoticons/default/21.gif) странные модеры в последнее время
в Technical info отрывок 9 секунд а не вся песня,внимательнее смотрите...может вам поэтому транскод кажется?
Go to the top of the page
  Insert nick Quick quote
+Quote Post
post Aug 26 2013, 10:17:00
Post #3

Necromancer
Group Icon
Group: Curation team
Posts: 11,025
Releases: 271
From: Зеленоград
On Forums: 13 years 8 months
Thanks: 8865 time(s)
Russian Federation


Очень красивая обложка, прямо под стать той атмосфере, которую несёт музыка. (IMG:style_emoticons/default/20.gif)
Go to the top of the page
  Insert nick Quick quote
+Quote Post
post Aug 26 2013, 22:19:33
Post #4

Два Литра
**
Group: Завсегдатай
Posts: 175
Releases: 17
On Forums: 6 years 11 months
Thanks: 330 time(s)
Unknown


С потенциалом, кстати, парень
Но, [мат->бан] чувствуется, что не раскроется
Go to the top of the page
  Insert nick Quick quote
+Quote Post
post Aug 27 2013, 01:00:16
Post #5

Шесть Шесть Шесть Литров
******
Group: Металариец
Posts: 566
Releases: 0
On Forums: 10 years 1 month
Thanks: 495 time(s)
NATO


Посредственная копирка Lustre, не впечатлило (IMG:style_emoticons/default/smile2.gif)
Go to the top of the page
  Insert nick Quick quote
+Quote Post

Причина закрытия (Funeral Frost 13-06-2017):
Closed TopicStart new topic
1 User(s) are reading this topic (1 Guests and 0 Anonymous Users)
0 Members:

 



- Lo-Fi Version Support form
Copyrights and abuse reports form
Time is now: 7th June 2020 - 02:42:07