Welcome Guest ( Log In | Register )

> Sabretung - Collision (2012), Thrash Metal
post Aug 24 2013, 18:30:13
Post #1

Правь статус, ####!111
**************
Group: Металариец
Posts: 14,627
Releases: 10089
From: Г.Харьков
On Forums: 6 years 5 months
Thanks: 166285 time(s)
Unknown


(IMG:http://metalarea.org/images/audiocovers/2013_Aug/acov_tid207046_thumb.jpg)

*Artist: Sabretung
*Album: Collision
*Year: 2012
*Genre: Thrash Metal
*Country: Australia (IMG:http://metalarea.org/forum/style_images/flags/Australia.png)
*Format: mp3@CBR320kbps
*Size: 68MB

Tracklist:
01.An Offer of False Hope 01:10
02.Deadline 03:59
03.Collision 03:08
04.Sadistic and Merciless 04:30
05.Endless Winter 05:48
06.The Return (Enthroned) 03:02
07.Martyr 03:33
08.Hedonistic and Merciless 05:00
******************************
Total playing time: 30:10



Technical info
(IMG:http://metalarea.org/images/spectrogram/2013_Aug/4b0a02967db076ad0567b4d947552c05.png)
Input File: 02 - Deadline.mp3
Channels : 2
Sample Rate : 44100
Precision : 16-bit
Duration : 00:04:00.28 = 10596216 samples = 18020.8 CDDA sectors
File Size : 9.62M
Bit Rate : 320k
Sample Encoding: MPEG audio (layer I, II or III)
Comments :
Title=Deadline
Artist=Sabretung
Album=Collision
Tracknumber=2
Year=2012
Genre=Thrash Metal



Register


Go to the top of the page
  Insert nick Quick quote
+Quote Post
 
Start new topic
Replies (1 - 5)
post Aug 24 2013, 22:30:14
Post #2

Шесть Литров
******
Group: Металариец
Posts: 646
Releases: 0
From: Одесса-мама
On Forums: 9 years 9 months
Thanks: 198 time(s)
Ukraine


Спасибище!!!
Опять нищак такой выложил, дай Бог тебе здоровьичка!
Жаль только, что пару песен не добавили до нормального релиза.


Thanks:
(1) aserius,
Go to the top of the page
  Insert nick Quick quote
+Quote Post
post Aug 25 2013, 06:38:35
Post #3

Пять Литров
*****
Group: Металариец
Posts: 420
Releases: 0
On Forums: 12 years 9 months
Thanks: 13 time(s)
Russian Federation


thanks a lot...great stuff...
Go to the top of the page
  Insert nick Quick quote
+Quote Post
post Aug 26 2013, 21:01:35
Post #4

MDM-Thrash Metal
**************
Group: Металариец
Posts: 7,174
Releases: 421
From: Одесса
On Forums: 11 years 2 months
Thanks: 13676 time(s)
Ukraine


Потрясающе класная работа! Треш метал очень высокого качества: в меру башкотяса, чувствуется олд скульное звучание, прекрасная ритм-секция, вокал гармонично вписывается в музыкальную составляющую - одним словом крепкая и добротная работа!!! (IMG:style_emoticons/default/pray.gif) (IMG:style_emoticons/default/pray.gif) (IMG:style_emoticons/default/pray.gif)
Go to the top of the page
  Insert nick Quick quote
+Quote Post
post Nov 21 2017, 19:12:10
Post #5

Три Литра
***
Group: Завсегдатай
Posts: 253
Releases: 0
On Forums: 5 years 2 months
Thanks: 2 time(s)
Mexico


re-upload, please
Go to the top of the page
  Insert nick Quick quote
+Quote Post
post Oct 11 2018, 14:00:23
Post #6

Подвал
**************
Group: Металариец
Posts: 12,609
Releases: 7091
From: Far East (Khabarovsk)
On Forums: 9 years 8 months
Thanks: 65550 time(s)
Russian Federation


new link:
Register


Thanks:
(1) pichileon,
Go to the top of the page
  Insert nick Quick quote
+Quote Post

Reply to this topicStart new topic
1 User(s) are reading this topic (1 Guests and 0 Anonymous Users)
0 Members:

 



- Lo-Fi Version Support form
Copyrights and abuse reports form
Time is now: 23rd October 2018 - 17:05:53