Welcome Guest ( Log In | Register )

> И неформату есть предел.

Рэп/хип-хоп/шансон/поп удаляются. Для них есть свои порталы.

> Psychic Ills - One Track Mind (2013), Psychedelic Rock/Experimental
post Aug 31 2013, 08:49:20
Post #1

Пять Литров
*****
Group: Металариец
Posts: 491
Releases: 13
On Forums: 9 years 7 months
Thanks: 859 time(s)
Russian Federation


(IMG:http://metalarea.org/images/audiocovers/2013_Aug/acov_tid207443_thumb.jpg)

*Artist: Psychic Ills
*Album: One Track Mind
*Year: 2013
*Genre: Psychedelic Rock/Experimental
*Country: United States (IMG:http://metalarea.org/forum/style_images/flags/United%20States.png)
*Format: mp3@CBR320kbps
*Size: 100MB

Tracklist:
01. One More Time 03:41
02. See You There 05:03
03. Might Take A While 03:45
04. Depot 03:22
05. Tried To Find It 05:19
06. FBI 03:33
07. I Get By 04:19
08. City Sun 04:01
09. Western Metaphor 04:56
10. Drop Out 05:24
******************************
Total playing time: 43:23

Technical info
(IMG:http://metalarea.org/images/spectrogram/2013_Aug/a5ec35190e13a2e4f2ecf18c60cf8633.png)
Input File: 01 - One More Time.mp3
Channels : 2
Sample Rate : 44100
Precision : 16-bit
Duration : 00:03:41.57 = 9771149 samples = 16617.6 CDDA sectors
File Size : 8.93M
Bit Rate : 322k
Sample Encoding: MPEG audio (layer I, II or III)
Comments :
Title=One More Time
Artist=Psychic Ills
Album=One Track Mind
Tracknumber=01/10
Year=2013
Genre=Psychedelic Rock
Discnumber=1/1



Register


Thanks:
Go to the top of the page
  Insert nick Quick quote
+Quote Post
 
Start new topic
Replies (1 - 1)
post Sep 4 2013, 18:08:22
Post #2

Статус-хиатус
**************
Group: Металариец
Posts: 2,640
Releases: 7
From: гости
On Forums: 12 years 6 months
Thanks: 1083 time(s)
Ukraine




Thanks:
(1) MeatKnife,
Go to the top of the page
  Insert nick Quick quote
+Quote Post

Reply to this topicStart new topic
2 User(s) are reading this topic (2 Guests and 0 Anonymous Users)
0 Members:

 



- Lo-Fi Version Support form
Copyrights and abuse reports form
Time is now: 8th April 2020 - 03:04:46