Welcome Guest ( Log In | Register )

> Epitaph & The Wise & Cryppta & Hecatombe - Garagem Hermética 10 Anos Metal [split] (2002), Heavy Metal | Heavy Metal | Heavy/Thrash Metal | Heavy Metal (D)
post Sep 3 2013, 14:22:02
Post #1

Правь статус, ####!111
**************
Group: Металариец
Posts: 6,014
Releases: 5543
From: Lithuania
On Forums: 11 years 11 months
Thanks: 40123 time(s)
Lithuania


(IMG:http://metalarea.org/images/audiocovers/2013_Sep/acov_tid207680_thumb.jpg)

*Artist: Epitaph & The Wise & Cryppta & Hecatombe
*Album: Garagem Hermética 10 Anos Metal [split]
*Year: 2002
*Genre: Heavy Metal | Heavy Metal | Heavy/Thrash Metal | Heavy Metal
*Country: Brazil (IMG:http://metalarea.org/forum/style_images/flags/Brazil.png) | Brazil (IMG:http://metalarea.org/forum/style_images/flags/Brazil.png) | Brazil (IMG:http://metalarea.org/forum/style_images/flags/Brazil.png) | Brazil (IMG:http://metalarea.org/forum/style_images/flags/Brazil.png)
*Format: mp3@CBR320kbps
*Size: 142MB

Tracklist:
Epitaph:
1. Wrong Choice
2. The Death Bell
3. Waiting Your Death
The Wise:
4. The Visionary
5. Me and Voyer
6. Black Miracle
Cryppta:
7. Fight
8. Living in Hell
9. The Hiker
Hecatombe:
10. Speed Limit
11. My Own God
12. Changing Their Minds: The First Key
******************************
Total playing time: 1:02:20

(IMG:http://metalarea.org/images/myspace.png)
(IMG:http://metalarea.org/images/myspace.png)
Cryppta

Technical info
(IMG:http://metalarea.org/images/spectrogram/2013_Sep/c1b19f3aeb89c13e170a007ef128c122.png)
Input File: 03 Waiting Your Death.mp3
Channels : 2
Sample Rate : 44100
Precision : 16-bit
Duration : 00:04:38.76 = 12293316 samples = 20907 CDDA sectors
File Size : 11.2M
Bit Rate : 320k
Sample Encoding: MPEG audio (layer I, II or III)
Comments :
Title=Waiting Your Death
Artist=Epitaph
Album=Garagem HermГ©tica 10 Anos - Metal
Tracknumber=3
Year=2002
Genre=Heavy Metal



Register


This post has been edited by Абигор: Sep 3 2013, 14:52:38


Thanks:
Go to the top of the page
  Insert nick Quick quote
+Quote Post
 
Start new topic
Replies (1 - 2)
post Mar 24 2018, 23:35:53
Post #2

Три Литра
***
Group: Завсегдатай
Posts: 243
Releases: 0
From: Argentina
On Forums: 3 years 4 months
Thanks: 81 time(s)
Unknown


LINK BROKEN , REUP PLEASE
Go to the top of the page
  Insert nick Quick quote
+Quote Post
post Sep 14 2018, 10:43:12
Post #3

Маньяк
**********
Group: Металариец
Posts: 1,401
Releases: 0
On Forums: 2 years 2 months
Thanks: 59 time(s)
United Kingdom


Please can you re-up
Go to the top of the page
  Insert nick Quick quote
+Quote Post

Reply to this topicStart new topic
1 User(s) are reading this topic (1 Guests and 0 Anonymous Users)
0 Members:

 



- Lo-Fi Version Support form
Copyrights and abuse reports form
Time is now: 22nd September 2018 - 02:21:07