Welcome Guest ( Log In | Register )

> Ravenblood - Beyond The Ghost's Pride (2013), Symphonic/Melodic Death Metal (D4)
post Sep 8 2013, 16:54:36
Post #1

Правь статус, ####!111
**************
Group: Металариец
Posts: 2,286
Releases: 1008
From: Гиперборе́я
On Forums: 9 years 7 months
Thanks: 21714 time(s)
Russian Federation


(IMG:http://metalarea.org/images/audiocovers/2013_Sep/acov_tid207978_thumb.jpg)

*Artist: Ravenblood
*Album: Beyond The Ghost's Pride
*Year: 2013
*Genre: Symphonic/Melodic Death Metal
*Country: Spain (IMG:http://metalarea.org/forum/style_images/flags/Spain.png)
*Format: mp3@CBR320kbps
*Size: 79MB

Tracklist:
01. Lid Of Oblivion 02:03
02. King Among Slaves 04:23
03. Ghost's Pride 05:19
04. The Hissing 01:22
05. Hanging Over The River 06:18
06. Shades 01:05
07. Relief 03:48
08. Pathfinder 03:50
09. Sin In Vain 06:08
10. Revenant 04:23
******************************
Total playing time: 38:39


(IMG:http://metalarea.org/images/myspace.png)
(IMG:http://metalarea.org/images/youtube.png)

Extended info
Low Bitrate


Technical info
(IMG:http://metalarea.org/images/spectrogram/2013_Sep/63de518e9fd43531e572b7d3da50e1eb.png)
Input File: 09 - Sin In Vain.mp3
Channels : 2
Sample Rate : 44100
Precision : 16-bit
Duration : 00:06:06.19 = 16148847 samples = 27464 CDDA sectors
File Size : 14.7M
Bit Rate : 321k
Sample Encoding: MPEG audio (layer I, II or III)
Comments :
Title=Sin In Vain
Artist=RavenBlood
Album=Beyond The Ghost's Pride
Tracknumber=09/10
Year=2013
Genre=Symphonic / Melodic Death Metal



Register


Go to the top of the page
  Insert nick Quick quote
+Quote Post
 
Start new topic
Replies (1 - 5)
post Sep 8 2013, 17:06:37
Post #2

Восемь Литров
********
Group: Металариец
Posts: 807
Releases: 94
On Forums: 8 years 7 months
Thanks: 2638 time(s)
Canada


Register


Thanks:
Go to the top of the page
  Insert nick Quick quote
+Quote Post
post Sep 8 2013, 19:48:52
Post #3

Социопат.Маргинал. Мизантроп.Нигилист. Перверзный нарциссист.
**************
Group: Металариец
Posts: 5,569
Releases: 667
From: Город-герой Ленинград
On Forums: 9 years 4 months
Thanks: 6418 time(s)
Russian Federation


Мммм,добро.


Thanks:
Go to the top of the page
  Insert nick Quick quote
+Quote Post
post Sep 8 2013, 21:22:00
Post #4

Литр
*
Group: Подсевший
Posts: 66
Releases: 0
From: Kazakhstan
On Forums: 11 years 4 months
Thanks: 19 time(s)
Kazakhstan


И даже фолковые мелодии в наличии (IMG:style_emoticons/default/metaler.gif)


Thanks:
Go to the top of the page
  Insert nick Quick quote
+Quote Post
post Sep 20 2013, 07:17:44
Post #5

Ъ
**************
Group: Металариец
Posts: 10,135
Releases: 9
On Forums: 11 years 5 months
Thanks: 2037 time(s)
Sweden


Вокалы вообще ни как, ни гроул ни чистый, музыка тоже не зацепила, слабо в общем. шифт+дел
Go to the top of the page
  Insert nick Quick quote
+Quote Post
post Sep 20 2013, 07:48:38
Post #6

Сектант технодро4чер
**************
Group: Металариец
Posts: 5,535
Releases: 143
From: Тимчасово окупована територія
On Forums: 11 years 10 months
Thanks: 5843 time(s)
Ukraine


Альбом понравился (IMG:style_emoticons/default/20.gif) После внимательного прослушивания не без удовольствия начал предвкушать релиз от мадридцев Dawn of Tears... (IMG:style_emoticons/default/spitggis0.gif)


Thanks:
Go to the top of the page
  Insert nick Quick quote
+Quote Post

Reply to this topicStart new topic
1 User(s) are reading this topic (1 Guests and 0 Anonymous Users)
0 Members:

 



- Lo-Fi Version Support form
Copyrights and abuse reports form
Time is now: 5th July 2020 - 01:25:06