Welcome Guest ( Log In | Register )

> Haust - No (2013), Black Metal/Hardcore Punk
post Sep 18 2013, 15:25:32
Post #1

Два Литра
**
Group: Завсегдатай
Posts: 181
Releases: 12
On Forums: 9 years 4 months
Thanks: 289 time(s)
Unknown


(IMG:http://metalarea.org/images/audiocovers/2013_Sep/acov_tid208602_thumb.jpg)

*Artist: Haust
*Album: No
*Year: 2013
*Genre: Black Metal/Hardcore Punk
*Country: Norway (IMG:http://metalarea.org/forum/style_images/flags/Norway.png)
*Format: mp3@CBR320kbps
*Size: 63MB

Tracklist:
1. Raw Material
2. Swells
3. Let It Die
4. No
5. Into The Night
6. Night
7. Mantra
8. Death Drive
9. Dead Of Night
******************************
Total playing time: 28:43

Technical info
(IMG:http://metalarea.org/images/spectrogram/2013_Sep/ee2f4ee322ebdbbcca6812cb3f8f5892.png)
Input File: 01-haust-raw_material.mp3
Channels : 2
Sample Rate : 44100
Precision : 16-bit
Duration : 00:02:16.49 = 6019297 samples = 10236.9 CDDA sectors
File Size : 5.46M
Bit Rate : 320k
Sample Encoding: MPEG audio (layer I, II or III)
Comments :
Title=Raw Material
Artist=Haust
Album=No
Tracknumber=1
Year=2013



Register


Go to the top of the page
  Insert nick Quick quote
+Quote Post
 
Start new topic
Replies (1 - 4)
post Oct 5 2013, 15:05:04
Post #2

Статус-хиатус
**************
Group: Металариец
Posts: 2,640
Releases: 7
From: гости
On Forums: 12 years 6 months
Thanks: 1083 time(s)
Ukraine


http://vimeo.com/64224774


Thanks:
(1) drbutcher,
Go to the top of the page
  Insert nick Quick quote
+Quote Post
inatas_eva_89
post Oct 5 2013, 15:13:22
Post #3

Guests team






ошень круто, реально нормальный музон
Go to the top of the page
  Insert nick Quick quote
+Quote Post
post Dec 2 2013, 11:42:51
Post #4

железный нечеловек
**********
Group: Металариец
Posts: 1,259
Releases: 3
From: Уфа
On Forums: 10 years 11 months
Thanks: 439 time(s)
Russian Federation


Вот наконец то хоть что то путёвое за последнее время услышали мои уши (IMG:style_emoticons/default/metaler.gif)
Go to the top of the page
  Insert nick Quick quote
+Quote Post
post Feb 17 2014, 09:15:25
Post #5

Музыкальная помойка {mazafaker халявосук}
**************
Group: Металариец
Posts: 2,219
Releases: 97
On Forums: 14 years 3 months
Thanks: 1007 time(s)
Russian Federation


Не тяжелый ХаКаПанк, рядом с металом и не лежало. А в целом сойдет, но пустовато.
Go to the top of the page
  Insert nick Quick quote
+Quote Post

Reply to this topicStart new topic
2 User(s) are reading this topic (2 Guests and 0 Anonymous Users)
0 Members:

 



- Lo-Fi Version Support form
Copyrights and abuse reports form
Time is now: 8th April 2020 - 02:19:30