Welcome Guest ( Log In | Register )

> Still Falling - The Three Suns [ep] (2013), Melodic Death Metal
post Sep 26 2013, 13:35:42
Post #1

Serial Uploader
Group Icon
Group: V.I.P
Posts: 37,124
Releases: 35308
From: Lithuania
On Forums: 11 years 11 months
Thanks: 419277 time(s)
Lithuania


(IMG:http://metalarea.org/images/audiocovers/2013_Sep/acov_tid209072_thumb.jpg)

*Artist: Still Falling
*Album: The Three Suns [ep]
*Year: 2013
*Genre: Melodic Death Metal
*Country: Greece (IMG:http://metalarea.org/forum/style_images/flags/Greece.png)
*Format: mp3@CBR320kbps
*Size: 53MB

Tracklist:
01. Intro 01:52
02. Myrrh Of Identity 06:23
03. The Red Giant 04:49
04. A Thousand Waves 05:43
05. Etheric Traction 04:08
******************************
Total playing time: 22:55

(IMG:http://metalarea.org/images/myspace.png)



Technical info
(IMG:http://metalarea.org/images/spectrogram/2013_Sep/7778be9c44ed1a30da6cee40f690a294.png)
Input File: STILL FALLING - the Three Suns - 02 Myrrh Of Identity.mp3
Channels : 2
Sample Rate : 44100
Precision : 16-bit
Duration : 00:06:23.77 = 16924433 samples = 28783 CDDA sectors
File Size : 15.4M
Bit Rate : 322k
Sample Encoding: MPEG audio (layer I, II or III)
Comments :
Title=Myrrh Of Identity
Artist=STILL FALLING
Album=the Three Suns
Tracknumber=2
Year=2013



Register


Go to the top of the page
  Insert nick Quick quote
+Quote Post
 
Start new topic
Replies (1 - 1)
post Oct 7 2013, 15:25:30
Post #2

No More Tears
**************
Group: Металариец
Posts: 4,988
Releases: 114
From: Тбилиси, Грузия
On Forums: 13 years 10 months
Thanks: 2392 time(s)
Georgia


В целом не очень плохо. ХОтя нарекание мое в том, что вокал и музыка, игра не очень-то стыкуются.
Go to the top of the page
  Insert nick Quick quote
+Quote Post

Reply to this topicStart new topic
1 User(s) are reading this topic (1 Guests and 0 Anonymous Users)
0 Members:

 



- Lo-Fi Version Support form
Copyrights and abuse reports form
Time is now: 29th May 2020 - 14:45:48