Welcome Guest ( Log In | Register )

> Running Wild - Resilient (2013), Heavy/Power Metal
post Oct 2 2013, 15:04:40
Post #1

Семь Литров
*******
Group: Validating team
Posts: 770
Releases: 260
On Forums: 8 years 1 month
Thanks: 10762 time(s)
Zambia


(IMG:http://metalarea.org/images/audiocovers/2013_Oct/acov_tid209532_thumb.jpg)

*Artist: Running Wild
*Album: Resilient
*Year: 2013
*Genre: Heavy/Power Metal
*Country: Germany (IMG:http://metalarea.org/forum/style_images/flags/Germany.png)
*Format: mp3@CBR320kbps
*Size: 143MB

Tracklist:
01. Soldiers Of Fortune
02. Resilient
03. Adventure Highway
04. The Drift
05. Desert Rose
06. Fireheart
07. Run Riot
08. Down To The Wire
09. Crystal Gold
10. Bloody Island
11. Payola & Shenanigans (Bonus Track)
12. Premonition (Bonus Track)
******************************
Total playing time: 1:00:03

(IMG:http://metalarea.org/images/myspace.png)

Extended info
Limited Edition


Technical info
(IMG:http://metalarea.org/images/spectrogram/2013_Oct/7e78df6abf12edbd3d6923ef8bd09fce.png)
Input File: 02. Resilient.mp3
Channels : 2
Sample Rate : 44100
Precision : 16-bit
Duration : 00:04:41.50 = 12414062 samples = 21112.4 CDDA sectors
File Size : 11.3M
Bit Rate : 322k
Sample Encoding: MPEG audio (layer I, II or III)
Comments :
Title=Resilient
Artist=Running Wild
Album= Resilient (Digipak)
Tracknumber=02
Year=2013
Genre=Heavy Power Metal



Register


This post has been edited by DarkHorde: Oct 3 2013, 00:26:33


Вернуться к началу страницы
  Insert nick Quick quote
+Цитировать сообщение
7 Pages V  « < 5 6 7  
Создать новую тему
Replies (180 - 180)
post Feb 14 2018, 21:17:59
Post #181

Правь статус, ####!111
**************
Group: Металариец
Posts: 30,934
Releases: 477
On Forums: 8 years 11 months
Thanks: 23893 time(s)
Russian Federation


ЦИТАТА(Rotten Goat @ Aug 6 2015, 12:38:35) *
Running Wild всегда было говнецом, им не про пиратов надо было петь, а про аквапарки

(IMG:style_emoticons/default/1488.gif) Жигно, товагищ (IMG:style_emoticons/default/crazy.gif)
Вернуться к началу страницы
  Insert nick Quick quote
+Цитировать сообщение

7 Pages V  « < 5 6 7
ОтветитьСоздать новую тему
1 User(s) are reading this topic (1 Guests and 0 Anonymous Users)
0 Members:

 



- Lo-Fi Version Support form
Copyrights and abuse reports form
Time is now: 25th May 2018 - 01:57:48