Welcome Guest ( Log In | Register )

 
Reply to this topicStart new topic
> Fulmination - Humanity's Dirge [best of/compilation] (2013), Death Metal
post Oct 2 2013, 21:17:54
Post #1

Два Литра
**
Group: Завсегдатай
Posts: 141
Releases: 90
From: Barcelona, Spain
On Forums: 9 years 10 months
Thanks: 1514 time(s)
Spain


(IMG:http://metalarea.org/images/audiocovers/2013_Oct/acov_tid209552_thumb.jpg)

*Artist: Fulmination
*Album: Humanity's Dirge [best of/compilation]
*Year: 2013
*Genre: Death Metal
*Country: Sweden (IMG:http://metalarea.org/forum/style_images/flags/Sweden.png)
*Format: mp3@CBR320kbps
*Size: 221MB

Tracklist:
Disc 1:
1. Entering Within 02:58
2. Sanity Dies 02:59
3. The Odious Night 02:40
4. Everlast 03:09
5. Through Fire 03:17
6. New Gods 02:58
7. The Legacy of Progress 03:56
8. Sanctuary of the Mind 03:35
9. Born to Obey 03:25
10. Stronger Than Life 04:06
11. Divine Invisibility 02:43
12. The Circle of Time 03:13
13. Pain Inflictor 03:49
14. Fading Illusions 04:24
15. The Seducer 03:48
16. Sons of Weakness 03:47
Disc 2:
17. The Righteous Few 03:49
18. The Seducer 03:31
19. Life Means Struggling Hard 03:41
20. Infected 03:45
21. Fading Illusions 04:07
22. Ancestors of the End to Be 03:41
23. Pain Inflictor 03:30
24. Apart 03:49
25. Through Fire 03:11
26. Sons of Weakness
******************************
Total playing time: 1:27:51

Extended info
Compilation of all their recorded works.

Disc 1:
Tracks 1-4 from the self-titled demo
Tracks 5-7 from the "Through Fire" demo
Tracks 8-12 from "Promo '93"
Tracks 13-16: live tracks (from split CD "Live from Musikhuset 1994")

Disc 2: All tracks from "Fading Illusions Promo 1994"


Technical info
(IMG:http://metalarea.org/images/spectrogram/2013_Oct/a9289a79d0e9c149329a0564ad5161ca.png)
Input File: 1-01 Entering Within.mp3
Channels : 2
Sample Rate : 44100
Precision : 16-bit
Duration : 00:00:06.40 = 282240 samples = 480 CDDA sectors
File Size : 256k
Bit Rate : 320k
Sample Encoding: MPEG audio (layer I, II or III)
Comments :
Title=Entering Within
Artist=Fulmination
Album=Humanity's Dirge
Tracknumber=1
Year=2013
Genre=22



Register

Register


This post has been edited by satanath: Oct 3 2013, 07:44:40


Go to the top of the page
  Insert nick Quick quote
+Quote Post
post Oct 3 2013, 00:09:58
Post #2

Подвал
**************
Group: Металариец
Posts: 13,594
Releases: 7703
From: Far East (Khabarovsk)
On Forums: 10 years 7 months
Thanks: 74437 time(s)
Russian Federation


both links are for Disk 1, please make a link for Disk 2.
Go to the top of the page
  Insert nick Quick quote
+Quote Post
post Oct 3 2013, 00:43:29
Post #3

Два Литра
**
Group: Завсегдатай
Posts: 141
Releases: 90
From: Barcelona, Spain
On Forums: 9 years 10 months
Thanks: 1514 time(s)
Spain


Sorry, my mouse is a bit broken and no copy/paste good. Here is the link for the second disc:

ЦИТАТА(rickzammuto @ Oct 3 2013, 01:15:07) *
Обе ссылки идут только диск 1.

It looks like both links go only to disc 1.

http://www.Mediafire.com/download/c6hh1ypl...area.org%5D.rar s_Dirge_ (Disc_1)

http://www.Mediafire.com/download/c6hh1ypl...area.org%5D.rar s_Dirge_ (Disc_2)

Here:
Register


Go to the top of the page
  Insert nick Quick quote
+Quote Post
NyarlathotepHY
post Oct 3 2013, 02:51:59
Post #4

Guests team






Rusfolder Please, (IMG:style_emoticons/default/pray.gif)
Go to the top of the page
  Insert nick Quick quote
+Quote Post
post Oct 3 2013, 05:15:00
Post #5

Подвал
**************
Group: Металариец
Posts: 13,594
Releases: 7703
From: Far East (Khabarovsk)
On Forums: 10 years 7 months
Thanks: 74437 time(s)
Russian Federation


ЦИТАТА(NyarlathotepHY @ Oct 3 2013, 04:51:59) *
Rusfolder Please, (IMG:style_emoticons/default/pray.gif)

оба диска в одной папке (TWO DISCS IN 1 FOLDER):
Register


Go to the top of the page
  Insert nick Quick quote
+Quote Post
NyarlathotepHY
post Oct 3 2013, 07:17:40
Post #6

Guests team






QUOTE(Proteus_666 @ Oct 3 2013, 05:15:00) *
оба диска в одной папке:



Thank You \m/
Go to the top of the page
  Insert nick Quick quote
+Quote Post
post Oct 3 2013, 07:49:50
Post #7

Маньяк
**********
Group: Металариец
Posts: 1,037
Releases: 14
On Forums: 10 years 11 months
Thanks: 852 time(s)
Russian Federation


Как же здорово, что делают такие вот компиляции (IMG:style_emoticons/default/pray.gif)
Go to the top of the page
  Insert nick Quick quote
+Quote Post
post Oct 3 2013, 19:51:08
Post #8

Crush! Kill! Destroy!
**************
Group: Металариец
Posts: 5,022
Releases: 15
From: Kaliningrad
On Forums: 11 years 9 months
Thanks: 4599 time(s)
Russian Federation


Это очень хорошая компиляха. Вотъ.
Go to the top of the page
  Insert nick Quick quote
+Quote Post
post Feb 24 2017, 08:42:41
Post #9

Going home. Flying high.
**************
Group: Металариец
Posts: 12,897
Releases: 0
From: The Land of Shadows
On Forums: 13 years 1 month
Thanks: 21159 time(s)
Russian Federation


from the web
Register


Go to the top of the page
  Insert nick Quick quote
+Quote Post
post Jul 23 2019, 17:36:32
Post #10

Три Литра
***
Group: Завсегдатай
Posts: 265
Releases: 2
From: Екатеринбург
On Forums: 9 years 9 months
Thanks: 89 time(s)
Russian Federation


lossless please
Go to the top of the page
  Insert nick Quick quote
+Quote Post

Reply to this topicStart new topic
1 User(s) are reading this topic (1 Guests and 0 Anonymous Users)
0 Members:

 



- Lo-Fi Version Support form
Copyrights and abuse reports form
Time is now: 16th September 2019 - 03:13:38