Welcome Guest ( Log In | Register )

> Sevenchurch - Stealing From The Dead [compilation] (2013), Doom Metal
post Oct 4 2013, 15:09:32
Post #1

Serial Uploader
Group Icon
Group: V.I.P
Posts: 36,463
Releases: 34651
From: Lithuania
On Forums: 11 years 5 months
Thanks: 404837 time(s)
Lithuania


(IMG:http://metalarea.org/images/audiocovers/2013_Oct/acov_tid209664_thumb.jpg)

*Artist: Sevenchurch
*Album: Stealing From The Dead [compilation]
*Year: 2013
*Genre: Doom Metal
*Country: United Kingdom (IMG:http://metalarea.org/forum/style_images/flags/United%20Kingdom.png)
*Format: mp3@CBR320kbps
*Size: 133MB

Tracklist:
01. Circus Divine 09:21
02. Twilight Of Evergreen 08:35
03. Old Truths, Ancient Magick 07:41
04. Magnolia Siege 05:23
05. The Rubber Room 04:49
06. Bifocal Mind 04:36
07. Green Grass Blindness 08:36
08. Circus Divine 09:00
******************************
Total playing time: 58:01

(IMG:http://metalarea.org/images/myspace.png)



Technical info
(IMG:http://metalarea.org/images/spectrogram/2013_Oct/854b44155c19b4c1e91013fee061dff3.png)
Input File: 02. Twilight of Evergreen.mp3
Channels : 2
Sample Rate : 44100
Precision : 16-bit
Duration : 00:08:35.45 = 22731213 samples = 38658.5 CDDA sectors
File Size : 20.6M
Bit Rate : 320k
Sample Encoding: MPEG audio (layer I, II or III)
Comments :
Title=Twilight of Evergreen
Artist=Sevenchurch
Album=Stealing From The Dead
Tracknumber=2/8
Year=2013



Register


This post has been edited by Borderline1991: Mar 16 2019, 10:42:52


Go to the top of the page
  Insert nick Quick quote
+Quote Post
 
Start new topic
Replies (1 - 2)
post Mar 31 2014, 18:43:16
Post #2

___
**************
Group: Металариец
Posts: 2,073
Releases: 12
On Forums: 11 years 3 months
Thanks: 2818 time(s)
Russian Federation


Sevenchurch творили в конце 80-х и в первой половине 90-х годов, но увы, давно уже распались. Компиляция англичан, представленная здесь под названием Stealing From The Dead, была выпущена в 2013-м году, и включает в себя целиком дебютное демо группы Nefarious 91-го года (первые два трека), плюс также целиком демо The Rubber Room 94-го года, не реализованное в своё время по причине распада команды (треки 4-7), плюс две раритетные вещи Old Truths, Ancient Magick и Circus Divine - всё это в ремастированном виде. Что ж, неплохая возможность познакомиться с теми ранними записями довольно интересной дум-команды, которые сегодня непросто найти даже в сети. Circus Divine построена на ядрёном мрачном традовом рифе, который "озвучивает" не слишком-то оптимальный, на мой взгляд, для подобной жанровой манеры вокал. Дальнейший ход событий показывает, что вокалов здесь зачастую несколько, а музыка время-от-времени принимает формы несколько странноватого трад-дума, нетипичного не только по вокалу, но и по части рифов. Ещё нагляднее последнюю мысль подтверждает вещь Twilight Of Evergreen: совершенно оригинальные ребята, ибо не знаешь, чего они могут выкинуть в следующую минуту - здесь и масса смен темпа, пения (то один вокал, то несколько), то вдруг откуда-то неожиданно выплывает медленный кусок с театрализованным вокальным представлением (ребята явно озвучивают некий сюжет) - всё это в совокупности почти, как американские горки. Old Truths, Ancient Magick заставляет поразмыслить о природе лидер-вокала англичан: а ведь такой вид низкого чистого мужского пения, по-моему, имеет какое-то определенное название - возможно, его можно отнести к готической, или григорианской манере; по музыке - мрачный, близкий к среднетемповому дум. Следующая часть - из упомянутой нереализованной записи: Magnolia Siege - довольно занимательный риф при всё той же не слишком типичной для трада манерой пения; The Rubber Room и Bifocal Mind - снова комбинация "специфический вокал + харизматичный интересный риф"; Grass Blindness - до 6:00 медленно и спокойно, под переборы, но с начала 7-й минуты следует взрыв - под дисторшированно-психоделическое соло и активизирующийся рифаж этот парень начинает орать всё сильнее и сильнее... Наконец, завершает компиляцию композиция Circus Divine - уж опять-таки не знаю, можно ли назвать её традом (навряд ли), но в плюс можно отметить существенную роль баса. И да, к специфическому голосу этого парня я так и не смог привыкнуть. (IMG:style_emoticons/default/smile1.gif) Тем не менее, материал объективно хороший, хотя и с позиции наших дней далеко не безукоризненный. 8/10


Thanks:
Go to the top of the page
  Insert nick Quick quote
+Quote Post
post Mar 16 2019, 10:46:45
Post #3


Group Icon
Group: S-moderation team
Posts: 12,596
Releases: 1439
From: Zagreb
On Forums: 8 years 8 months
Thanks: 54659 time(s)
Croatia


Register


Thanks:
Go to the top of the page
  Insert nick Quick quote
+Quote Post

Reply to this topicStart new topic
2 User(s) are reading this topic (2 Guests and 0 Anonymous Users)
0 Members:

 



- Lo-Fi Version Support form
Copyrights and abuse reports form
Time is now: 19th November 2019 - 09:55:52