Welcome Guest ( Log In | Register )

> Krahnholm - Demo [demo] (2013), Black Metal
post Oct 16 2013, 10:18:30
Post #1

Два Литра
**
Group: Завсегдатай
Posts: 121
Releases: 2
On Forums: 11 years 9 months
Thanks: 98 time(s)
Russian Federation


(IMG:http://metalarea.org/images/audiocovers/2013_Oct/acov_tid210452_thumb.jpg)

*Artist: Krahnholm
*Album: Demo [demo]
*Year: 2013
*Genre: Black Metal
*Country: Russian Federation (IMG:http://metalarea.org/forum/style_images/flags/Russian%20Federation.png)
*Format: mp3@CBR320kbps
*Size: 70MB

Tracklist:
1. Темные от крови реки / Bloody Rivers 07:05
2. Бледные руки мои / Pale Hands 08:31
3. Тьма / Darkness 05:51
4. ...Останется пройти за мглой / ...Through the Haze 07:52
******************************
Total playing time: 29:19


(IMG:http://metalarea.org/images/youtube.png)

Extended info


Technical info
(IMG:http://metalarea.org/images/spectrogram/2013_Oct/9b16ea1764279a1177525b22d8977992.png)
Input File: 04 …Останется пройти за мглой (...Through the Haze).mp3
Channels : 2
Sample Rate : 44100
Precision : 16-bit
Duration : 00:07:52.91 = 20855419 samples = 35468.4 CDDA sectors
File Size : 18.9M
Bit Rate : 320k
Sample Encoding: MPEG audio (layer I, II or III)



Register


Go to the top of the page
  Insert nick Quick quote
+Quote Post
 
Start new topic
Replies (1 - 4)
post Oct 16 2013, 13:28:30
Post #2

Oax Moax Voax
****
Group: Металариец
Posts: 374
Releases: 6
From: UKR
On Forums: 11 years 2 months
Thanks: 633 time(s)
Ukraine


(IMG:http://s3.hostingkartinok.com/uploads/images/2013/10/fb74c16c5755ded637ec1c79cee217b3.jpg)


Thanks:
Go to the top of the page
  Insert nick Quick quote
+Quote Post
post Oct 16 2013, 13:50:40
Post #3

Три Литра
***
Group: Завсегдатай
Posts: 294
Releases: 0
On Forums: 12 years 8 months
Thanks: 97 time(s)
Russian Federation


В наше время частенько "мыслят" картинкой, сзывая поглумиться знакомых, не более того))
Выложившему спасибо, материал действительно заслуживает внимания.
Go to the top of the page
  Insert nick Quick quote
+Quote Post
post Nov 9 2013, 13:27:01
Post #4


**************
Group: Металариец
Posts: 2,151
Releases: 14
From: Казань
On Forums: 10 years 4 months
Thanks: 2868 time(s)
Russian Federation


ЦИТАТА(Torolv @ Oct 16 2013, 16:50:40) *
В наше время частенько "мыслят" картинкой, сзывая поглумиться знакомых, не более того))
Выложившему спасибо, материал действительно заслуживает внимания.

(IMG:http://i59.fastpic.ru/big/2013/1109/c2/25352c08c6bce0e0d57847670c0606c2.jpg)
Go to the top of the page
  Insert nick Quick quote
+Quote Post
post Jan 26 2014, 19:43:19
Post #5

ретроград
**************
Group: Металариец
Posts: 4,993
Releases: 182
On Forums: 12 years 7 months
Thanks: 7416 time(s)
Vatican City


А что, очень даже не плохо для Московии. Довольно жёстко и совком не пахнет)
Go to the top of the page
  Insert nick Quick quote
+Quote Post

Reply to this topicStart new topic
2 User(s) are reading this topic (2 Guests and 0 Anonymous Users)
0 Members:

 



- Lo-Fi Version Support form
Copyrights and abuse reports form
Time is now: 25th January 2020 - 04:23:09