Welcome Guest ( Log In | Register )

> Vomitile - Igniting Chaos (2013), Death Metal
post Oct 18 2013, 15:43:43
Post #1

Правь статус, ####!111
**************
Group: Металариец
Posts: 21,882
Releases: 15087
From: Г.Харьков
On Forums: 8 years 2 weeks
Thanks: 273514 time(s)
Unknown


(IMG:http://metalarea.org/images/audiocovers/2013_Oct/acov_tid210637_thumb.jpg)

*Artist: Vomitile
*Album: Igniting Chaos
*Year: 2013
*Genre: Death Metal
*Country: Cyprus (IMG:http://metalarea.org/forum/style_images/flags/Cyprus.png)
*Format: mp3@CBR320kbps
*Size: 77MB

Tracklist:
01.Rise of the Wicked (Intro) 01:47
02.Obliterating Scourge 04:17
03.Bastardocracy 02:56
04.Repulsive Postured Gangrene (R.P.G.) 04:50
05.Stagnant Purity 03:53
06.Unleashing the Massacre 04:26
07.Decapitation of The Gods 03:58
08.Warcult 03:55
09.Cesspool of Blood And Hate 03:58
******************************
Total playing time: 34:00

Preview 1


Technical info
(IMG:http://metalarea.org/images/spectrogram/2013_Oct/2f57e5c69b257fcb55c5f0ab44299209.png)
Input File: 03 - Bastardocracy.mp3
Channels : 2
Sample Rate : 44100
Precision : 16-bit
Duration : 00:02:55.10 = 7721954 samples = 13132.6 CDDA sectors
File Size : 7.01M
Bit Rate : 320k
Sample Encoding: MPEG audio (layer I, II or III)
Comments :
Title=Bastardocracy
Artist=Vomitile
Album=Igniting Chaos
Tracknumber=3
Year=2013
Genre=22



Register


Go to the top of the page
  Insert nick Quick quote
+Quote Post
 
Start new topic
Replies (1 - 3)
post Oct 19 2013, 11:07:54
Post #2

Пять Литров
*****
Group: Металариец
Posts: 420
Releases: 0
On Forums: 8 years 11 months
Thanks: 63 time(s)
Unknown


прокуренный вокалёр!!(( сводит на нет весь музон...
Go to the top of the page
  Insert nick Quick quote
+Quote Post
post Oct 20 2013, 18:07:05
Post #3

...Only Death Is Real...
**************
Group: Металариец
Posts: 2,835
Releases: 16
On Forums: 9 years 10 months
Thanks: 1840 time(s)
Antarctica


ЦИТАТА(toly1917 @ Oct 19 2013, 16:07:54) *
прокуренный вокалёр

Нормально звучит. (IMG:style_emoticons/default/metaler.gif)
Go to the top of the page
  Insert nick Quick quote
+Quote Post
post Apr 26 2018, 00:28:35
Post #4

Правь статус, ####!111
**************
Group: Металариец
Posts: 2,286
Releases: 0
On Forums: 5 years 3 weeks
Thanks: 2753 time(s)
Russian Federation


From the web, 320
Register


Thanks:
Go to the top of the page
  Insert nick Quick quote
+Quote Post

Reply to this topicStart new topic
1 User(s) are reading this topic (1 Guests and 0 Anonymous Users)
0 Members:

 



- Lo-Fi Version Support form
Copyrights and abuse reports form
Time is now: 29th May 2020 - 15:05:44