Welcome Guest ( Log In | Register )

> Redimoni - Standing Before The End Of Time (2012), Thrash Metal
post Oct 22 2013, 13:01:45
Post #1

Правь статус, ####!111
**************
Group: Металариец
Posts: 25,234
Releases: 17980
From: Г.Харьков
On Forums: 8 years 9 months
Thanks: 352228 time(s)
Unknown


(IMG:http://metalarea.org/images/audiocovers/2013_Oct/acov_tid210878_thumb.jpg)

*Artist: Redimoni
*Album: Standing Before The End Of Time
*Year: 2012
*Genre: Thrash Metal
*Country: Spain (IMG:http://metalarea.org/forum/style_images/flags/Spain.png)
*Format: mp3@CBR320kbps
*Size: 82MB

Tracklist:
01.The End Times 01:19
02.Cast Into the Valley of Hinnom 02:52
03.Shrapnel Wounds 02:49
04.To The Gallows 02:52
05.Towards Destruction 02:51
06.Journey to the Netherworld 04:33
07.Drifting Into Oblivion 02:39
08.The Abyss 03:39
09.Pragmatic Sorcery 03:08
10.Dragged to the Bottom of the Depths 03:39
11.Facing Pazuzu 02:51
12.The Ultimate Victory 03:33
******************************
Total playing time: 36:45



Technical info
(IMG:http://metalarea.org/images/spectrogram/2013_Oct/259c8f1dd237fb5610783bfae8db5619.png)
Input File: 02 - Cast into the Valley of Hinnom.mp3
Channels : 2
Sample Rate : 44100
Precision : 16-bit
Duration : 00:02:52.18 = 7592918 samples = 12913.1 CDDA sectors
File Size : 6.89M
Bit Rate : 320k
Sample Encoding: MPEG audio (layer I, II or III)
Comments :
Title=Cast into the Valley of Hinnom
Artist=ReDimoni
Album=Standing Before the End of Time
Tracknumber=2
Year=2012
Genre=Thrash Metal



Register


Go to the top of the page
  Insert nick Quick quote
+Quote Post
 
Start new topic
Replies (1 - 6)
post Oct 22 2013, 15:57:08
Post #2

Group: Подсевший
Posts: 46
Releases: 27
On Forums: 13 years 2 months
Thanks: 218 time(s)
Russian Federation


whats happen with rusfolder now, it says error This file is not available for teh.prichine (no_storages)
Go to the top of the page
  Insert nick Quick quote
+Quote Post
post Oct 23 2013, 07:10:28
Post #3

Dr.
**************
Group: Металариец
Posts: 5,330
Releases: 0
From: Primorye.ru
On Forums: 9 years 11 months
Thanks: 1106 time(s)
Russian Federation


rusfolder in order, downloading is under way, as well, and the material itself umatny despite the singer.
... the sixth track vocal strain stopped, everything is fine.
Go to the top of the page
  Insert nick Quick quote
+Quote Post
post Sep 30 2016, 20:26:38
Post #4

Going home. Flying high.
**************
Group: Металариец
Posts: 13,118
Releases: 0
From: The Land of Shadows
On Forums: 14 years 6 months
Thanks: 26412 time(s)
Russian Federation


from the web - lossless
Register


Go to the top of the page
  Insert nick Quick quote
+Quote Post
post Jan 12 2021, 19:32:13    Сейчас играет: Re-up please ;-)
Post #5

Литр
*
Group: Подсевший
Posts: 87
Releases: 0
From: Sofia
On Forums: 13 years 5 months
Thanks: 10 time(s)
Bulgaria


Could anyone re-up this one, please ? (IMG:style_emoticons/default/pray.gif) (IMG:style_emoticons/default/pray.gif) (IMG:style_emoticons/default/9.gif) (IMG:style_emoticons/default/22.gif)
Go to the top of the page
  Insert nick Quick quote
+Quote Post
post Jan 13 2021, 16:07:21
Post #6

Group Icon
Group: S-moderation team
Posts: 19,587
Releases: 1441
From: Zagreb
On Forums: 10 years 1 week
Thanks: 90002 time(s)
Croatia


Register


Thanks:
Go to the top of the page
  Insert nick Quick quote
+Quote Post
post Jan 13 2021, 16:38:50
Post #7

Литр
*
Group: Подсевший
Posts: 87
Releases: 0
From: Sofia
On Forums: 13 years 5 months
Thanks: 10 time(s)
Bulgaria


Thank you so much, my metal sis ! (IMG:style_emoticons/default/pray.gif) (IMG:style_emoticons/default/pray.gif) (IMG:style_emoticons/default/pray.gif)

QUOTE(Borderline1991 @ Jan 13 2021, 15:07:21) *

Go to the top of the page
  Insert nick Quick quote
+Quote Post

Reply to this topicStart new topic
1 User(s) are reading this topic (1 Guests and 0 Anonymous Users)
0 Members:

 



- Lo-Fi Version Support form
Copyrights and abuse reports form
Time is now: 7th March 2021 - 22:06:48