Welcome Guest ( Log In | Register )

 
Reply to this topicStart new topic
> Wulfheim - De Profundis (2009), Raw Black Metal
post Oct 22 2013, 16:14:27
Post #1

Семь Литров
*******
Group: Металариец
Posts: 727
Releases: 52
On Forums: 8 years 10 months
Thanks: 2664 time(s)
Ukraine


(IMG:http://metalarea.org/images/audiocovers/2013_Oct/acov_tid210891_thumb.jpg)

*Artist: Wulfheim
*Album: De Profundis
*Year: 2009
*Genre: Raw Black Metal
*Country: Spain (IMG:http://metalarea.org/forum/style_images/flags/Spain.png)
*Format: mp3@CBR320kbps
*Size: 62MB

Tracklist:
01. Prologue - The Voice Of Thousand Shadows
02. De Profundis
03. The Whispering Sadness
04. Into Oblivion
05. The Tears Of Solitude
06. The Gravedancer
07. Epilogue - Requiem
******************************
Total playing time: 27:12

(IMG:http://metalarea.org/images/youtube.png)

Extended info
Satanath Records. New, second edition, 2013.
222 limited handnumbered copies. Re-release includes new art-work & 2 bonus tracks (1st edition in 2009 - self release without intro & outro and with other art-work).


Technical info
(IMG:http://metalarea.org/images/spectrogram/2013_Oct/77c4fa55ef7d8576fb161c799618be9f.png)
Input File: 02. De Profundis.mp3
Channels : 2
Sample Rate : 44100
Precision : 16-bit
Duration : 00:06:34.07 = 17378531 samples = 29555.3 CDDA sectors
File Size : 15.8M
Bit Rate : 320k
Sample Encoding: MPEG audio (layer I, II or III)
Comments :
Title=De Profundis
Artist=Wulfheim
Album=De Profundis
Tracknumber=2
Year=2013
Genre=Black Metal



Register


Go to the top of the page
  Insert nick Quick quote
+Quote Post

Reply to this topicStart new topic
2 User(s) are reading this topic (2 Guests and 0 Anonymous Users)
0 Members:

 



- Lo-Fi Version Support form
Copyrights and abuse reports form
Time is now: 13th December 2019 - 03:23:52