Welcome Guest ( Log In | Register )

> Gojira & Kvelertak - Gojira/Kvelertak Live [split] (2013), Progressive/Groove/Death Metal | Black'N'Roll
post Oct 24 2013, 12:28:24
Post #1

Serial Uploader
Group Icon
Group: V.I.P
Posts: 36,984
Releases: 35167
From: Lithuania
On Forums: 11 years 8 months
Thanks: 414301 time(s)
Lithuania


(IMG:http://metalarea.org/images/audiocovers/2013_Oct/acov_tid210989_thumb.jpeg)

*Artist: Gojira & Kvelertak
*Album: Gojira/Kvelertak Live [split]
*Year: 2013
*Genre: Progressive/Groove/Death Metal | Black'N'Roll
*Country: France (IMG:http://metalarea.org/forum/style_images/flags/France.png) | Norway (IMG:http://metalarea.org/forum/style_images/flags/Norway.png)
*Format: mp3@CBR320kbps
*Size: 63MB

Tracklist:
Gojira:
01. L’Enfant Sauvage 03:38
02. The Axe 05:48
03. The Gift Of Guilt 06:12
Kvelertak:
04. Kvelertak 03:57
05. Bruane Brenn 04:33
06. Evig Vandrar 03:18
******************************
Total playing time: 27:26

(IMG:http://metalarea.org/images/myspace.png)


(IMG:http://metalarea.org/images/youtube.png)

Technical info
(IMG:http://metalarea.org/images/spectrogram/2013_Oct/bd07f1f6c944132de1f110c9bd3dfdac.png)
Input File: 02. The Axe (Live).mp3
Channels : 2
Sample Rate : 44100
Precision : 16-bit
Duration : 00:05:48.97 = 15389533 samples = 26172.7 CDDA sectors
File Size : 14.7M
Bit Rate : 338k
Sample Encoding: MPEG audio (layer I, II or III)
Comments :
Title=The Axe (Live)
Artist=Gojira
Album=Gojira/Kvelertak Live
Tracknumber=2/6
Year=2013
Genre=9
Discnumber=1/1



Register


Go to the top of the page
  Insert nick Quick quote
+Quote Post
 
Start new topic
Replies (1 - 5)
post Oct 24 2013, 14:44:43
Post #2

Социопат.Маргинал. Мизантроп.Нигилист. Перверзный нарциссист.
**************
Group: Металариец
Posts: 5,564
Releases: 667
From: Город-герой Ленинград
On Forums: 9 years 1 week
Thanks: 6305 time(s)
Russian Federation


Вот так сплит,неожиданное сочетание.


Thanks:
(1) princeshr,
Go to the top of the page
  Insert nick Quick quote
+Quote Post
post Oct 24 2013, 18:21:55
Post #3

Grind the Human Scum
*********
Group: Металариец
Posts: 988
Releases: 18
On Forums: 13 years 1 month
Thanks: 928 time(s)
Russian Federation


что дальше? сплит калинова моста и DsO? (IMG:style_emoticons/default/crazy.gif)
Go to the top of the page
  Insert nick Quick quote
+Quote Post
frarrasco
post Nov 20 2014, 03:17:09
Post #4

Guests team






muchas graciasss por el tremendo aporte...buenisimooo...un abrazo compadre
Go to the top of the page
  Insert nick Quick quote
+Quote Post
post Feb 14 2020, 08:57:16
Post #5

Group: Подсевший
Posts: 34
Releases: 0
On Forums: 3 years 3 months
Thanks: 3 time(s)
Andorra


Could you please re-up it? Thank you so much! (IMG:style_emoticons/default/smile1.gif)
Go to the top of the page
  Insert nick Quick quote
+Quote Post
post Feb 14 2020, 15:23:15
Post #6


Group Icon
Group: S-moderation team
Posts: 14,114
Releases: 1439
From: Zagreb
On Forums: 8 years 11 months
Thanks: 61668 time(s)
Croatia


Register


Thanks:
Go to the top of the page
  Insert nick Quick quote
+Quote Post

Reply to this topicStart new topic
2 User(s) are reading this topic (2 Guests and 0 Anonymous Users)
0 Members:

 



- Lo-Fi Version Support form
Copyrights and abuse reports form
Time is now: 19th February 2020 - 23:41:41