Welcome Guest ( Log In | Register )

> Armifera - Eradication (2013), Thrash Metal
post Oct 29 2013, 16:43:43
Post #1

Serial Uploader
Group Icon
Group: V.I.P
Posts: 37,190
Releases: 35373
From: Lithuania
On Forums: 12 years 3 weeks
Thanks: 420937 time(s)
Lithuania


(IMG:http://metalarea.org/images/audiocovers/2013_Oct/acov_tid211343_thumb.jpg)

*Artist: Armifera
*Album: Eradication
*Year: 2013
*Genre: Thrash Metal
*Country: Canada (IMG:http://metalarea.org/forum/style_images/flags/Canada.png)
*Format: mp3@CBR320kbps
*Size: 111MB

Tracklist:
01. Eradication 06:37
02. Die Free 05:21
03. System Of Secrecy 05:44
04. Cerebral Slave 02:56
05. Iron Entities 04:08
06. Blunt Force Trauma 07:16
07. D.M.H. (Death Metal Horror) 06:48
08. Metal Massacre 03:51
09. Woven Mist 05:34
******************************
Total playing time: 48:15

(IMG:http://metalarea.org/images/myspace.png)



Technical info
(IMG:http://metalarea.org/images/spectrogram/2013_Oct/9c00011487c3d73a03b561f6d7116446.png)
Input File: 02. Die Free.mp3
Channels : 2
Sample Rate : 44100
Precision : 16-bit
Duration : 00:05:21.31 = 14169903 samples = 24098.5 CDDA sectors
File Size : 12.9M
Bit Rate : 320k
Sample Encoding: MPEG audio (layer I, II or III)
Comments :
Title=Die Free
Artist=Armifera
Album=Eradication
Tracknumber=2/9
Year=2013



Register


Go to the top of the page
  Insert nick Quick quote
+Quote Post
 
Start new topic
Replies (1 - 4)
post Oct 29 2013, 18:04:29
Post #2

Маньяк
**********
Group: Металариец
Posts: 1,228
Releases: 101
From: 56°24′00″ с. ш. 61°56′00″ в. д.
On Forums: 13 years 6 months
Thanks: 2219 time(s)
Russian Federation


Первый блин комом. (IMG:style_emoticons/default/smile2.gif)

Но вокалиста нужно менять, он никакой!
Go to the top of the page
  Insert nick Quick quote
+Quote Post
post Oct 29 2013, 19:47:52
Post #3

hearer & reader
**************
Group: Металариец
Posts: 8,786
Releases: 143
From: Moscow
On Forums: 12 years 9 months
Thanks: 8918 time(s)
Russian Federation


ЦИТАТА(Metropolis @ Oct 29 2013, 21:04:29) *
Первый блин комом. (IMG:style_emoticons/default/smile2.gif)

Но вокалиста нужно менять, он никакой!

Не трогать удода - он из Красной Книги!
(IMG:https://a4-images.myspacecdn.com/images03/34/ac92e963c8cd482a9807fadc9f727173/300x300.jpg)
(и в майке Исхода)


Thanks:
Go to the top of the page
  Insert nick Quick quote
+Quote Post
post Oct 29 2013, 19:52:34
Post #4

Шесть Литров
******
Group: Металариец
Posts: 697
Releases: 0
From: Одесса-мама
On Forums: 11 years 5 months
Thanks: 234 time(s)
Ukraine


Спасибо!
Та вокалист нормально бы верещал, если бы было под что. В те немногие моменты, где таки есть музыка, так он и нормально так себе визжит!


Thanks:
(1) Diflock,
Go to the top of the page
  Insert nick Quick quote
+Quote Post
post Oct 30 2013, 10:05:53
Post #5

Join my religion, or die
**************
Group: Металариец
Posts: 10,712
Releases: 1527
From: Питера
On Forums: 10 years 9 months
Thanks: 19756 time(s)
Russian Federation


Хороши лишь обложка и майка во-КАЛ-иста (IMG:style_emoticons/default/15.gif)
Go to the top of the page
  Insert nick Quick quote
+Quote Post

Reply to this topicStart new topic
1 User(s) are reading this topic (1 Guests and 0 Anonymous Users)
0 Members:

 



- Lo-Fi Version Support form
Copyrights and abuse reports form
Time is now: 2nd July 2020 - 11:12:54