Welcome Guest ( Log In | Register )

> Endstille - Kapitulation 2013 (2013), Black Metal
post Nov 4 2013, 22:43:29
Post #1

Аннигилятор пивА
Group Icon
Group: V.I.P
Posts: 52,360
Releases: 16550
From: Koenigsberg - TILZIT
On Forums: 14 years 3 months
Thanks: 366053 time(s)
Russian Federation


(IMG:http://metalarea.org/images/audiocovers/2013_Nov/acov_tid211693_thumb.jpg)

*Artist: Endstille
*Album: Kapitulation 2013
*Year: 2013
*Genre: Black Metal
*Country: Germany (IMG:http://metalarea.org/forum/style_images/flags/Germany.png)
*Format: mp3@CBR320kbps
*Size: 99MB

Tracklist:
01. Aborted
02. The Refined Nation
03. Reich An Jugend
04. Sick Heil
05. Blasphemer
06. Monotonous 2013
07. Nostalgia
08. Stalin Note
09. KDF 511
10. Endstille (Abschied)
******************************
Total playing time: 42:19



Extended info
Cruor - Bass (2000-present)
See also: Tauthr, ex-Octoria, ex-Haradwaith
Mayhemic Destructor - Drums (2000-present)
See also: Tauthr
Lars Wachtfels - Guitars (2000-present)
See also: Tauthr
Zingultus - Vocals (2009-present)
See also: Graupel, Graven, Desecration, ex-Nagelfar
B. Killed - Guitars (2012-present)
See also: Kilt


Technical info
(IMG:http://metalarea.org/images/spectrogram/2013_Nov/686daea7ecdf816e4166e3b9d167bfb2.png)
Input File: 02-The Refined Nation.mp3
Channels : 2
Sample Rate : 44100
Precision : 16-bit
Duration : 00:04:37.48 = 12236648 samples = 20810.6 CDDA sectors
File Size : 11.3M
Bit Rate : 325k
Sample Encoding: MPEG audio (layer I, II or III)
Comments :
Title=The Refined Nation
Artist=Endstille
Album=Kapitulation 2013
Tracknumber=02
Year=2013
Genre=Black Metal



Register


Register


Go to the top of the page
  Insert nick Quick quote
+Quote Post
2 Pages V  < 1 2  
Start new topic
Replies (30 - 37)
post Nov 12 2013, 11:54:50
Post #31

Group: Подсевший
Posts: 23
Releases: 0
On Forums: 7 years 9 months
Thanks: 14 time(s)
Norway


Love this band, thanks! (IMG:style_emoticons/default/smile3.gif)
Go to the top of the page
  Insert nick Quick quote
+Quote Post
post Nov 12 2013, 12:07:07
Post #32

Аннигилятор пивА
Group Icon
Group: V.I.P
Posts: 52,360
Releases: 16550
From: Koenigsberg - TILZIT
On Forums: 14 years 3 months
Thanks: 366053 time(s)
Russian Federation


ЦИТАТА(aserius @ Nov 11 2013, 18:03:35) *
В том то и дело ты не совсем прав . 75 спасибок это не 75 скачавших.У меня 26 скачавших Лосося и ОДНА спасибка

ради интереса глянул статистику (IMG:style_emoticons/default/crazy.gif) у меня на ифолдере 222 скачиваний, плюс на яндексе 224
Go to the top of the page
  Insert nick Quick quote
+Quote Post
post Nov 12 2013, 13:30:05
Post #33

Сектант технодро4чер
**************
Group: Металариец
Posts: 5,539
Releases: 143
From: Тимчасово окупована територія
On Forums: 12 years 1 month
Thanks: 5876 time(s)
Ukraine


ЦИТАТА(aserius @ Nov 11 2013, 22:03:35) *
а этот и еще сильней и разноплановей


+1
Go to the top of the page
  Insert nick Quick quote
+Quote Post
post Nov 12 2013, 13:37:20
Post #34

Самый Тихий Час
**************
Group: Металариец
Posts: 6,054
Releases: 2
On Forums: 10 years 10 months
Thanks: 2798 time(s)
Unknown


Релиз конечно хороший, но это видимо единственное что у меня в голове отложится и переслушивать не буду, так же как и предыдущие альбомы. Просто есть уйма более интересного мне мракобесия. Хотя пока нравится.
Go to the top of the page
  Insert nick Quick quote
+Quote Post
post Nov 26 2013, 19:54:48
Post #35

Статус-хиатус
**************
Group: Металариец
Posts: 2,642
Releases: 7
From: гости
On Forums: 13 years 1 week
Thanks: 1096 time(s)
Ukraine


Если и правда круче бомбезного предыдущего... посмотрим, посмотрим.
Go to the top of the page
  Insert nick Quick quote
+Quote Post
post Apr 5 2015, 21:44:15
Post #36

Правь статус, ####!111
**************
Group: Металариец
Posts: 47,344
Releases: 742
On Forums: 11 years 3 months
Thanks: 40308 time(s)
Russian Federation


Попсово, трэндово и уж совсем мелодичненько. Так катастрорфически нельзя.
Go to the top of the page
  Insert nick Quick quote
+Quote Post
post Jan 14 2020, 15:07:51
Post #37

Три Литра
***
Group: Завсегдатай
Posts: 211
Releases: 0
From: Польша
On Forums: 7 years 6 months
Thanks: 121 time(s)
Poland


Can re-up someone?
Go to the top of the page
  Insert nick Quick quote
+Quote Post
post Jan 14 2020, 15:15:10
Post #38

Добрый
**************
Group: Металариец
Posts: 4,405
Releases: 0
On Forums: 2 years 2 months
Thanks: 9246 time(s)
Russian Federation


98 mb/320 kbps
Register


Go to the top of the page
  Insert nick Quick quote
+Quote Post

2 Pages V  < 1 2
Reply to this topicStart new topic
1 User(s) are reading this topic (1 Guests and 0 Anonymous Users)
0 Members:

 



- Lo-Fi Version Support form
Copyrights and abuse reports form
Time is now: 22nd September 2020 - 15:50:48